»
»

Скачать Bon Jovi - Live in Japan от ALEXnROCK / [1985, Hard Rock, DVDRip] 1080p - торрент

Скачать торрент можно, нажав на синюю кнопку ниже.

Статистика раздачи
25 [ 0 b/s ] ↑ 4.2 GB ↓ 0 [ 0 b/s ]
Автор Сообщение
ALEXnROCK Music
2018-12-06 15:42
Bon Jovi - Live in Japan от ALEXnROCK
Bon Jovi - Live in Japan от ALEXnROCK

Формат: DVDRip, MKV, H.264, PCM
Песня: Bon Jovi - Live in Japan (1985)
Жанр: Hard Rock
Продолжительность: 01:20:49
Год выпуска: 1985
Видео: 1456x1080 (4x3) 30 fps, AVC (High@L4) 5300 kbps, 0.112 bit/pixel
Аудио 1: PCM 2.0, 48KHz, 1536kbps
Аудио 2: AC3, 48Hz 224Kbps
Аудио 3: Mp3 320Kbps 48Hz

Доп. информация:
Крутейший концерт легендарных рокеров. Рип с фирменного двд. Ремастеринг видео и звука. CD звук нашел и поставил только на 4 песни, но и оригинальная доржка неплохая. Да пребудет с нами качественная музыка!. Все лучшее для вас. ALEXnROCK

Смотреть онлайн

Треклист

01. Tokyo Road
02. Breakout
03. Only Lonely
04. She Don't Know Me
05. Shot Through The Heart
06. Silent Night
07. Hardest Part Is The Night
08. In And Out Of Love
09. Runaway
10. Burning For Love
11. Get Ready


Mediainfo
Общее
Уникальный идентификатор : 198631719329242481412953875789455543790 (0x956F13DEA697DCF892C18ABACFE7CDEE)
Полное имя : Bon Jovi - Live in Japan 85 ALEXnROCK.mkv
Формат : Matroska
Версия формата : Version 4 / Version 2
Размер файла : 4,17 Гбайт
Продолжительность : 1 ч. 20 м.
Общий поток : 7379 Кбит/сек
Дата кодирования : UTC 2018-11-29 17:16:56
Программа кодирования : mkvmerge v9.8.0 ('Kuglblids') 64bit
Библиотека кодирования : libebml v1.3.4 + libmatroska v1.4.5

Видео
Идентификатор : 1
Формат : AVC
Формат/Информация : Advanced Video Codec
Профиль формата : High@L4
Настройки формата : CABAC / 4 Ref Frames
Параметр CABAC формата : Да
Параметр RefFrames формата : 4 кадра
Идентификатор кодека : V_MPEG4/ISO/AVC
Продолжительность : 1 ч. 20 м.
Битрейт : 5300 Кбит/сек
Ширина : 1456 пикселей
Высота : 1080 пикселей
Соотношение сторон : 4:3
Режим частоты кадров : Постоянный
Частота кадров : 30,000 кадров/сек
Цветовое пространство : YUV
Субдискретизация насыщенности : 4:2:0
Битовая глубина : 8 бит
Тип развёртки : Прогрессивная
Бит/(Пиксели*Кадры) : 0.112
Размер потока : 2,99 Гбайт (72%)
Библиотека кодирования : x264 core 146 r2538 121396c
Настройки программы : cabac=1 / ref=3 / deblock=1:-1:-1 / analyse=0x3:0x113 / me=hex / subme=7 / psy=1 / psy_rd=1.00:0.15 / mixed_ref=1 / me_range=16 / chroma_me=1 / trellis=1 / 8x8dct=1 / cqm=0 / deadzone=21,11 / fast_pskip=1 / chroma_qp_offset=-3 / threads=12 / lookahead_threads=2 / sliced_threads=0 / nr=0 / decimate=1 / interlaced=0 / bluray_compat=0 / constrained_intra=0 / bframes=3 / b_pyramid=2 / b_adapt=1 / b_bias=0 / direct=3 / weightb=1 / open_gop=0 / weightp=2 / keyint=250 / keyint_min=25 / scenecut=40 / intra_refresh=0 / rc_lookahead=40 / rc=2pass / mbtree=1 / bitrate=5300 / ratetol=1.0 / qcomp=0.60 / qpmin=0 / qpmax=69 / qpstep=4 / cplxblur=20.0 / qblur=0.5 / ip_ratio=1.40 / aq=1:1.00
Default : Да
Forced : Нет

Аудио #1
Идентификатор : 2
Формат : PCM
Идентификатор кодека : A_PCM/INT/LIT
Продолжительность : 1 ч. 20 м.
Вид битрейта : Постоянный
Битрейт : 1536 Кбит/сек
Каналы : 2 канала
Частота : 48,0 КГц
Частота кадров : 32,000 кадра/сек (1500 SPF)
Битовая глубина : 16 бит
Размер потока : 888 Мбайт (21%)
Default : Да
Forced : Нет

Аудио #2
Идентификатор : 3
Формат : AC-3
Формат/Информация : Audio Coding 3
Параметр Endianness формата : Big
Идентификатор кодека : A_AC3
Продолжительность : 1 ч. 20 м.
Вид битрейта : Постоянный
Битрейт : 224 Кбит/сек
Каналы : 2 канала
Расположение каналов : Front: L R
Частота : 48,0 КГц
Частота кадров : 31,250 кадров/сек (1536 SPF)
Битовая глубина : 16 бит
Метод сжатия : С потерями
Размер потока : 129 Мбайт (3%)
ServiceKind/String : Complete Main
Default : Нет
Forced : Нет

Аудио #3
Идентификатор : 4
Формат : MPEG Audio
Версия формата : Version 1
Профиль формата : Layer 3
Идентификатор кодека : A_MPEG/L3
Идентификатор кодека/Подсказка : MP3
Продолжительность : 1 ч. 20 м.
Вид битрейта : Постоянный
Битрейт : 320 Кбит/сек
Каналы : 2 канала
Частота : 48,0 КГц
Частота кадров : 41,667 кадра/сек (1152 SPF)
Метод сжатия : С потерями
Размер потока : 185 Мбайт (4%)
Библиотека кодирования : LAME3.99r
Настройки программы : -m s -V 4 -q 2 -lowpass 20.5
Default : Нет
Forced : Нет


Информация о торренте:
Размер содержимого: 4.2 GB
Скачан: 61 раз
Статус: Мультитрекерная раздача
Зарегистрирован на трекере: 2018-12-06 14:42
Скачать торрент


Поддержи раздачу — поставь лайк:
Писать комментарии на нашем торрент-трекере могут только зарегистрированные пользователи.
Зарегистрируйтесь или авторизируйтесь на сайте.