»
»

Скачать Сергей Бобунец - Квартирник НТВ у Маргулиса (Эфир от 18.11.2018) / [2018, Rock, HDTV 1080i] - торрент

Скачать бесплатно через торрент.

Статистика раздачи
16 [ 0 b/s ] ↑ 2.9 GB ↓ 3 [ 0 b/s ]
Автор Сообщение
migdi
2018-12-07 03:16
Сергей Бобунец - Квартирник НТВ у Маргулиса (Эфир от 18.11.2018)
Сергей Бобунец - Квартирник НТВ у Маргулиса
Формат: HDTV, MPEG-TS, AVC, MP2
Песня: Квартирник НТВ у Маргулиса
Жанр: Rock
Продолжительность: 00:52:00
Год выпуска: 2018

Видео: 1920х1080 (16:9), 25 fps, AVC High@L4.0 ~ 7205 Кбит/с, 0.139 bit/pixel
Аудио: 48 kHz, MPEG Layer 2, 2 ch, ~192.00 kbps avg

Доп. информация: "Квартирник" — это необычный формат, подкупающий неформальностью и живой творческой атмосферой. В гости к Евгению Маргулису приходят известные музыканты и камерно, под гитару, исполняют свои лучшие песни и новые композиции. Если раньше о том, кто придет в студию, зрители узнавали заранее, то теперь интрига сохранится вплоть до самого эфира и сделает квартирник еще более закрытым мероприятием для настоящих ценителей хорошей музыки

Треклист

01. Пока танцуют ангелы
02. Первый день осени
03. Улыбайся
04. Всё в порядке
05. Зачем топтать мою любовь
06. Апрель
07. Розовые Очки
08. Звёзды
09. Вечно молодой


Автор релиза: kuzmichm2196

MediaInfo
General
ID : 1 (0x1)
Complete name : F:\Behold TV 222\Квартирник НТВ у Маргулиса. Сергей Бобунец Смысловые галлюцинации. 2018.11.18.ts
Format : MPEG-TS
File size : 2.86 GiB
Duration : 52 min 34 s
Overall bit rate mode : Variable
Overall bit rate : 7 783 kb/s

Video
ID : 1004 (0x3EC)
Menu ID : 304 (0x130)
Format : AVC
Format/Info : Advanced Video Codec
Format profile : High@L4
Format settings : CABAC / 4 Ref Frames
Format settings, CABAC : Yes
Format settings, ReFrames : 4 frames
Format settings, GOP : M=3, N=24
Codec ID : 27
Duration : 52 min 34 s
Bit rate : 7 205 kb/s
Width : 1 920 pixels
Height : 1 080 pixels
Display aspect ratio : 16:9
Frame rate : 25.000 FPS
Standard : Component
Color space : YUV
Chroma subsampling : 4:2:0
Bit depth : 8 bits
Scan type : Interlaced
Scan type, store method : Separated fields
Scan order : Top Field First
Bits/(Pixel*Frame) : 0.139
Stream size : 2.65 GiB (93%)
Color range : Limited
Color primaries : BT.709
Transfer characteristics : BT.709
Matrix coefficients : BT.709

Audio
ID : 2004 (0x7D4)
Menu ID : 304 (0x130)
Format : MPEG Audio
Format version : Version 1
Format profile : Layer 2
Codec ID : 3
Duration : 52 min 34 s
Bit rate mode : Constant
Bit rate : 192 kb/s
Channel(s) : 2 channels
Sampling rate : 48.0 kHz
Frame rate : 41.667 FPS (1152 SPF)
Compression mode : Lossy
Stream size : 72.2 MiB (2%)
Language : Russian



Информация о торренте:
Размер содержимого: 2.9 GB
Скачан: 155 раз
Статус: Проверен
Зарегистрирован на трекере: 2018-12-07 02:16
Скачать торрент


Поддержи раздачу — поставь лайк:
Писать комментарии на нашем торрент-трекере могут только зарегистрированные пользователи.
Зарегистрируйтесь или авторизируйтесь на сайте.