»
»

Скачать музыку Rainbow – The Best Of Rainbow (Vinyl rip 24 bit 96 khz) / [1981, Hard Rock, FLAC] - торрент

Скачать торрент музыку можно, нажав на синюю кнопку ниже.

Статистика раздачи
8 [ 15.0 KB/s ] ↑ 1.7 GB ↓ 1 [ 100.0 KB/s ]
Автор Сообщение
rainbow.n
2019-01-12 18:25
Rainbow – The Best Of Rainbow (Vinyl rip 24 bit 96 khz)
Rainbow – The Best Of Rainbow Формат: FLAC, tracks, lossless
Год выпуска: 1981
Страна: England
Жанр: Hard Rock
Продолжительность: 01:22:06
Описание:
Треклист
A1. All Night Long - 3.48
A2. Man On The Silver Mountain - 4.38
A3. Lost In Hollywood - 4.48
A4. Jealous Lover - 3.09
A5. Long Live Rock 'N' Roll - 4.25

B1. Stargazer – 8.28
B2. Kill The King - 4.28
B3. A Light In The Black - 8.12

C1. Since You've Been Gone - 3.15
C2. 16th Century Greensleeves - 3.35
C3. Catch The Rainbow - 6.40
C4. The Eyes Of The World - 6.33

D1. I Surrender - 4.00
D2. Gates Of Babylon - 6.47
D3. Can't Happen Here - 4.56
D4. Starstruck - 4.06

Доп. информация:
Log
foobar2000 1.1.10 / Dynamic Range Meter 1.1.1
log date: 2019-01-12 16:58:36

--------------------------------------------------------------------------------
Analyzed: ? / ?
--------------------------------------------------------------------------------

DR Peak RMS Duration Track
--------------------------------------------------------------------------------
DR11 -0.26 dB -12.45 dB 3:54 ?-A1. All Night Long
DR11 -0.26 dB -13.28 dB 4:34 ?-A2. Man On The Silver Mountain
DR10 -0.26 dB -12.27 dB 4:54 ?-A3. Lost In Hollywood
DR11 -0.26 dB -12.53 dB 3:14 ?-A4. Jealous Lover
DR10 -0.26 dB -11.82 dB 4:21 ?-A5. Long Live Rock 'N' Roll
DR11 -0.26 dB -13.77 dB 8:29 ?-B1. Stargazer
DR10 -0.26 dB -11.59 dB 4:31 ?-B2. Kill The King
DR12 -0.26 dB -14.26 dB 8:14 ?-B3. A Light In The Black
DR11 -0.26 dB -13.36 dB 3:19 ?-C1. Since You've Been Gone
DR12 -0.26 dB -13.68 dB 3:30 ?-C2. 16th Century Greensleeves
DR12 -0.26 dB -15.79 dB 6:30 ?-C3. Catch The Rainbow
DR11 -0.26 dB -13.23 dB 6:39 ?-C4. The Eyes Of The World
DR10 -0.26 dB -12.24 dB 4:04 ?-D1. I Surrender
DR11 -0.26 dB -13.17 dB 6:46 ?-D2. Gates Of Babylon
DR11 -0.26 dB -12.84 dB 4:58 ?-D3. Can't Happen Here
DR12 -0.26 dB -14.37 dB 4:08 ?-D4. Starstruck
--------------------------------------------------------------------------------

Number of tracks: 16
Official DR value: DR11

Samplerate: 96000 Hz
Channels: 2
Bits per sample: 24
Bitrate: 2956 kbps
Codec: FLAC
================================================================================


Информация о торренте:
Размер содержимого: 1.7 GB
Скачан: 161 раз
Статус: Проверен
Зарегистрирован на трекере: 2019-01-12 17:25
Скачать торрент


Поддержи раздачу — поставь лайк:
Писать комментарии на нашем торрент-трекере могут только зарегистрированные пользователи.
Зарегистрируйтесь или авторизируйтесь на сайте.