»
»

Скачать ABBA - The Movie. Australian Tour / [1977, Pop, DVD5] - торрент

Скачать бесплатный торрент .

Статистика раздачи
2 [ 0 b/s ] ↑ 4.3 GB ↓ 1 [ 0 b/s ]
Автор Сообщение
cobra2000
2019-01-12 18:51
ABBA - The Movie. Australian Tour
ABBA - The Movie. Australian Tour   Формат: DVD5, DVD Video, MPEG2, AC3
Песня: The Movie. Australian Tour
Жанр: Pop
Продолжительность: 01:35:17
Год выпуска: 1977

Видео: 720х576 (PAL 16:9), 24,000 fps, MPEG-2, ~5577 kbps avg, 0.560 bit/pixel
Аудио: 48.0 КГц, Audio Coding 3, 2 ch, 192 kbps

Доп. информация: Описание: Фильм охватывает период наивысшей популярности группы, между альбомом 1976 года «Arrival» и альбомом 1977 года «The Album», песни из которых представлены в виде видеозарисовок.

Треклист:
01. Please Change Your Mind
02. Hole In Your Soul
03. Tiger
04. SOS
05. Money, Money, Money
06. He Is Your Brother
07. Intermezzo no 1
08. Waterloo
09. Mamma Mia
10. Rock Me
11. Stoned
12. The Name Waiting Of The Game
13. Ring Ring
14. Why Did It Have To Be Me
15. When I Kissed The Teacher
16. Get On The Carousel
17. I'm A Marionete
18. Fernando
19. Dancing Queen
20. So Long
21. Eagle
22. Thank You For The Music


MediaInfo
Общее
Полное имя : D:Tfileabba_the_movie_[tfile.ru]VIDEO_TSVTS_01_1.VOB
Формат : MPEG-PS
Размер файла : 1024 Мбайт
Продолжительность : 24 м. 19 с.
Режим общего битрейта : Переменный
Общий поток : 5886 Кбит/сек

Видео
Идентификатор : 224 (0xE0)
Формат : MPEG Video
Версия формата : Version 2
Профиль формата : Main@Main
Параметр BVOP формата : Да
Параметр матрицы формата : По умолчанию
Параметр GOP формата : M=3, N=12
Продолжительность : 24 м. 19 с.
Вид битрейта : Переменный
Битрейт : 5577 Кбит/сек
Максимальный битрейт : 9008 Кбит/сек
Ширина : 720 пикселей
Высота : 576 пикселей
Соотношение сторон : 16:9
Частота кадров : 24,000 кадра/сек
Цветовое пространство : YUV
Субдискретизация насыщенности : 4:2:0
Битовая глубина : 8 бит
Тип развёртки : Прогрессивная
Порядок развёртки : 2:2:2:2:2:2:2:2:2:2:2:3 Pulldown
Метод сжатия : С потерями
Бит/(Пиксели*Кадры) : 0.560
Временной код первого кадра : 00:00:00:00
Оригинал временного кода : Group of pictures header
GOP, открыто/закрыто : Закрыто
Размер потока : 970 Мбайт (95%)

Аудио
Идентификатор : 189 (0xBD)-128 (0x80)
Формат : AC-3
Формат/Информация : Audio Coding 3
Параметр Endianness формата : Big
Режим смешивания : DVD-Video
Продолжительность : 24 м. 18 с.
Вид битрейта : Постоянный
Битрейт : 192 Кбит/сек
Каналы : 2 канала
Расположение каналов : Front: L R
Частота : 48,0 КГц
Частота кадров : 31,250 кадров/сек (1536 spf)
Битовая глубина : 16 бит
Метод сжатия : С потерями
Размер потока : 33,4 Мбайт (3%)
ServiceKind/String : Complete Main



Информация о торренте:
Размер содержимого: 4.3 GB
Скачан: 212 раз
Статус: Проверен
Зарегистрирован на трекере: 2019-01-12 17:51
Скачать торрент


Поддержи раздачу — поставь лайк:
Писать комментарии на нашем торрент-трекере могут только зарегистрированные пользователи.
Зарегистрируйтесь или авторизируйтесь на сайте.