»
»

Скачать Александр Розенбаум - Концерт в БКЗ Октябрьский ко Дню ВМФ / [2018, Авторская песня, Шансон, DVD5] - торрент

Скачать через торрент вы можете, нажав на синюю кнопку.

Статистика раздачи
16 [ 0 b/s ] ↑ 4.3 GB ↓ 0 [ 0 b/s ]
Автор Сообщение
cobra2000
2019-01-12 23:03
Александр Розенбаум - Концерт в БКЗ "Октябрьский" ко Дню ВМФ
Александр Розенбаум - Концерт в БКЗ Октябрьский ко Дню ВМФ Формат: DVD5, DVD Video, MPEG2, AC3
Песня: Концерт в БКЗ "Октябрьский" ко Дню ВМФ
Жанр: Авторская песня, Шансон
Продолжительность: 02:13:11
Год выпуска: 2018

Видео: 720х576 (PAL 16:9), 25,000 fps, MPEG-2, ~4221 kbps avg, 0.407 bit/pixel
Аудио: 48.0 КГц, Audio Coding 3, 2 ch, 192 kbps

Доп. информация: Поэт, композитор народный артист России, а также полковник запаса Александр Розенбаум 29 июля 2018 года выступил на сцене БКЗ «Октябрьский» с праздничным концертом ко Дню военно-морского флота. В концертной программе прозвучали полюбившиеся петербуржцам композиции Александра Розенбаума, а также новые песни маэстро.

Треклист:
01. 38 узлов
02. День ВМФ
03. Ара-губа
04. Письмо
05. По первому сроку
06. Вечерняя застольная
07. Лунная дорога
08. Матросская лирическая
09. Корабль конвоя
10. Не забыть мне, Зина, флот
11. Ночной кабак
12. Флагманский марш
13. Не хочу стареть
14. Песня отрока
15. Оттепель
16. Лето в садоводстве
17. Посвящение Окуджаве
18. Ностальгический романс
19. Вещая судьба
20. Размышление на прогулке
21. Романс генерала Чарноты
22. Вальс-бостон
23. Налетела грусть
24. Коллаж (Заходите к нам на огонёк, Извозчик, Зойка, Крещатик, На улице Марата)
25. Марш музыкантского спецназа
26. Утиная охота
27. День ВМФ (на бис)


MediaInfo
Общее
Полное имя : D:Tfilerozenbaum_den'_vmf_[tfile.ru]VIDEO_TSVTS_01_1.VOB
Формат : MPEG-PS
Размер файла : 1024 Мбайт
Продолжительность : 31 м. 47 с.
Режим общего битрейта : Переменный
Общий поток : 4502 Кбит/сек

Видео
Идентификатор : 224 (0xE0)
Формат : MPEG Video
Версия формата : Version 2
Профиль формата : Main@Main
Параметр BVOP формата : Да
Параметр матрицы формата : По умолчанию
Параметр GOP формата : M=3, N=13
Продолжительность : 31 м. 47 с.
Вид битрейта : Переменный
Битрейт : 4221 Кбит/сек
Максимальный битрейт : 9008 Кбит/сек
Ширина : 720 пикселей
Высота : 576 пикселей
Соотношение сторон : 16:9
Частота кадров : 25,000 кадров/сек
Стандарт вещания : PAL
Цветовое пространство : YUV
Субдискретизация насыщенности : 4:2:0
Битовая глубина : 8 бит
Тип развёртки : Прогрессивная
Метод сжатия : С потерями
Бит/(Пиксели*Кадры) : 0.407
Временной код первого кадра : 00:00:00:00
Оригинал временного кода : Group of pictures header
GOP, открыто/закрыто : Закрыто
Размер потока : 960 Мбайт (94%)

Аудио
Идентификатор : 189 (0xBD)-128 (0x80)
Формат : AC-3
Формат/Информация : Audio Coding 3
Параметр Endianness формата : Big
Режим смешивания : DVD-Video
Продолжительность : 31 м. 47 с.
Вид битрейта : Постоянный
Битрейт : 192 Кбит/сек
Каналы : 2 канала
Расположение каналов : Front: L R
Частота : 48,0 КГц
Частота кадров : 31,250 кадров/сек (1536 spf)
Битовая глубина : 16 бит
Метод сжатия : С потерями
Размер потока : 43,7 Мбайт (4%)
ServiceKind/String : Complete Main



Информация о торренте:
Размер содержимого: 4.3 GB
Скачан: 198 раз
Статус: Проверен
Зарегистрирован на трекере: 2019-01-12 22:03
Скачать торрент


Поддержи раздачу — поставь лайк:
Писать комментарии на нашем торрент-трекере могут только зарегистрированные пользователи.
Зарегистрируйтесь или авторизируйтесь на сайте.