»
»

Скачать Михаил Шуфутинский - Юбилейный концерт / [2018, Shanson, DVD5] - торрент

Скачать через торрент вы можете, нажав на синюю кнопку.

Статистика раздачи
7 [ 17.0 KB/s ] ↑ 4.2 GB ↓ 1 [ 17.0 KB/s ]
Автор Сообщение
cobra2000
2019-01-13 21:44
Михаил Шуфутинский - Юбилейный концерт
Михаил Шуфутинский - Юбилейный концерт Формат: DVD5, DVD Video, MPEG2, AC3
Песня: Юбилейный концерт
Жанр: Shanson
Продолжительность: 01:50:02
Год выпуска: 2018

Видео: 720х576 (PAL 16:9), 25,000 fps, MPEG-2, ~4957 kbps avg, 0.478 bit/pixel
Аудио: 48.0 КГц, Audio Coding 3, 2 ch, 192 kbps

Доп. информация: Юбилейный концерт в "Артист" в Крокус Сити Холл проходил 15.04.2018 года.

Треклист:
01. У вокзала
02. Москва-Владивосток
03. Беспризорник — Михаил Шуфутинский и Елена Воробей
04. Сгорая, плачут свечи
05. Питер-Москва — Михаил Шуфутинский и Анастасия Спиридонова
06. Левый берег Дона
07. Ты у меня единственная — Вячеслав Добрынин и Анастасия Макеева
08. Обожаю — Михаил Шуфутинский и Лев Лещенко
09. Я просто медленно люблю
10. Серёга — Михаил Шуфутинский ,и Хор Турецкого
11. Соло — Михаил Шуфутинский и Стас Михайлов
12. Заходите к нам на огонёк — Михаил Шуфутинский и Александр Розенбаум
13. Еврейский портной — Михаил Шуфутинский и Александр Розенбаум
14. Супчик из цветной капусты — Михаил Шуфутинский и Валерий Курас
15. Налётчики — Михаил Шуфутинский и Александр Буйнов
16. Люба-Любонька — Михаил Шуфутинский и Любовь Успенская
17. Бутылка вина
18. Душа болит — Михаил Шуфутинский и Тамара Гвердцители
19. Наколочка
20. Пусть тебе приснится "Пальма-де-Майорка" — Михаил Шуфутинский и Денис Клявер
21. Провинциальный джаз-бэнд
22. Третье сентября
23. Марджанджа
24. Артист


MediaInfo
Общее
Полное имя : D:Tfileshufutinskiy_ubileyniy_koncert_[tfile.ru]VIDEO_TSVTS_01_1.VOB
Формат : MPEG-PS
Размер файла : 1024 Мбайт
Продолжительность : 27 м. 14 с.
Режим общего битрейта : Переменный
Общий поток : 5253 Кбит/сек

Видео
Идентификатор : 224 (0xE0)
Формат : MPEG Video
Версия формата : Version 2
Профиль формата : Main@Main
Параметр BVOP формата : Да
Параметр матрицы формата : По умолчанию
Параметр GOP формата : M=3, N=13
Продолжительность : 27 м. 14 с.
Вид битрейта : Переменный
Битрейт : 4957 Кбит/сек
Максимальный битрейт : 9008 Кбит/сек
Ширина : 720 пикселей
Высота : 576 пикселей
Соотношение сторон : 16:9
Частота кадров : 25,000 кадров/сек
Стандарт вещания : PAL
Цветовое пространство : YUV
Субдискретизация насыщенности : 4:2:0
Битовая глубина : 8 бит
Тип развёртки : Прогрессивная
Метод сжатия : С потерями
Бит/(Пиксели*Кадры) : 0.478
Временной код первого кадра : 00:00:00:00
Оригинал временного кода : Group of pictures header
GOP, открыто/закрыто : Закрыто
Размер потока : 966 Мбайт (94%)

Аудио
Идентификатор : 189 (0xBD)-128 (0x80)
Формат : AC-3
Формат/Информация : Audio Coding 3
Параметр Endianness формата : Big
Режим смешивания : DVD-Video
Продолжительность : 27 м. 14 с.
Вид битрейта : Постоянный
Битрейт : 192 Кбит/сек
Каналы : 2 канала
Расположение каналов : Front: L R
Частота : 48,0 КГц
Частота кадров : 31,250 кадров/сек (1536 spf)
Битовая глубина : 16 бит
Метод сжатия : С потерями
Размер потока : 37,4 Мбайт (4%)
ServiceKind/String : Complete Main



Информация о торренте:
Размер содержимого: 4.2 GB
Скачан: 353 раза
Статус: Проверен
Зарегистрирован на трекере: 2019-01-13 20:44
Скачать торрент


Поддержи раздачу — поставь лайк:
Писать комментарии на нашем торрент-трекере могут только зарегистрированные пользователи.
Зарегистрируйтесь или авторизируйтесь на сайте.