»
»

Скачать музыку VA - Smooth Sax / [2018, Mainstream Jazz, FLAC] - торрент

Скачать музыку бесплатно через торрент.

Статистика раздачи
12 [ 6.0 KB/s ] ↑ 909.7 MB ↓ 0 [ 0 b/s ]
Автор Сообщение
rainbow.n
2019-01-14 12:02
VA - Smooth Sax
VA - Smooth Sax Формат: FLAC, (image + .cue), lossless
Год выпуска: 2018
Страна: USA
Жанр: Mainstream Jazz
Продолжительность: 02:31:10
Описание:
CD1 01
VA - Smooth Sax
01. Coleman Hawkins - Indian Summer (3:11)
02. Dexter Gordon - Guess I'll Hang My Tears Out To Dry (5:18 )
03. Charlie Parker With Strings - Just Friend (3:28 )
04. Illinois Jaquet - Blues In The Night (2:52)
05. Ike Quebek - Everything Happens To Me (6:34)
06. Lou Donaldson - Polka Dots and Moonbeams (4:54)
07. Sonny Stitt - It Might As Well Be Spring (4:54)
08. Lester Young - Ghost Of A Chance (3:20)
09. Mezzoforte - Here And Now (6:07)
10. Hank Mobley - If I Should Lose You (5:04)
11. Benny Carter Quartet - And The Angel Sing (2:55)
12. Gerry Mulligan, Chet Baker - Stardust (4:41)
13. Lester Young - I Can't Get Started (3:35)
14. Don Bays - Misty (3:06)
15. Charlie Parker - Au Private (2:47)
16. Stan Getz - Who Could Care (4:41)
17. Metropol Orkest feat. Randy Brecker,Ronnie Cuber & Conard Herwig - I X Love (8:38 )

eac
Exact Audio Copy V1.0 beta 3 from 29. August 2011

EAC extraction logfile from 12. January 2019, 14:06

Various Artists / Smooth Sax CD1

Used drive : PIONEER BD-RW BDR-TD03 Adapter: 0 ID: 1

Read mode : Secure
Utilize accurate stream : Yes
Defeat audio cache : Yes
Make use of C2 pointers : No

Read offset correction : 667
Overread into Lead-In and Lead-Out : No
Fill up missing offset samples with silence : Yes
Delete leading and trailing silent blocks : No
Null samples used in CRC calculations : Yes
Used interface : Native Win32 interface for Win NT & 2000

Used output format : User Defined Encoder
Selected bitrate : 768 kBit/s
Quality : High
Add ID3 tag : No
Command line compressor : C:\Program Files (x86)\Exact Audio Copy\FLAC\FLAC.EXE
Additional command line options : -6 -V -T "ARTIST=%artist%" -T "TITLE=%title%" -T "ALBUM=%albumtitle%" -T "DATE=%year%" -T "TRACKNUMBER=%tracknr%" -T "GENRE=%genre%" -T "COMMENT=%comment%" -T "BAND=%albuminterpret%" -T "ALBUMARTIST=%albuminterpret%" -T "COMPOSER=%composer%" %haslyrics%--tag-from-file=LYRICS="%lyricsfile%"%haslyrics% -T "DISCNUMBER=%cdnumber%" -T "TOTALDISCS=%totalcds%" -T "TOTALTRACKS=%numtracks%" %hascover%--picture="%coverfile%"%hascover% %source% -o %dest%

TOC of the extracted CD

Track | Start | Length | Start sector | End sector
---------------------------------------------------------
1 | 0:00.00 | 3:11.48 | 0 | 14372
2 | 3:11.48 | 5:18.00 | 14373 | 38222
3 | 8:29.48 | 3:28.36 | 38223 | 53858
4 | 11:58.09 | 2:52.70 | 53859 | 66828
5 | 14:51.04 | 6:34.06 | 66829 | 96384
6 | 21:25.10 | 4:54.61 | 96385 | 118495
7 | 26:19.71 | 4:54.13 | 118496 | 140558
8 | 31:14.09 | 3:20.15 | 140559 | 155573
9 | 34:34.24 | 6:07.06 | 155574 | 183104
10 | 40:41.30 | 5:04.65 | 183105 | 205969
11 | 45:46.20 | 2:55.10 | 205970 | 219104
12 | 48:41.30 | 4:41.57 | 219105 | 240236
13 | 53:23.12 | 3:35.28 | 240237 | 256389
14 | 56:58.40 | 3:06.71 | 256390 | 270410
15 | 60:05.36 | 2:47.06 | 270411 | 282941
16 | 62:52.42 | 4:41.39 | 282942 | 304055
17 | 67:34.06 | 8:38.10 | 304056 | 342915

Range status and errors

Selected range

Filename C:\Users\Deris\Desktop\kpnemo.eu\Smutsaks\cd1\Various Artists - Smooth Sax CD1.wav

Peak level 98.8 %
Extraction speed 5.1 X
Range quality 99.9 %
Test CRC FB732797
Copy CRC FB732797
Copy OK

No errors occurred

AccurateRip summary

Track 1 not present in database
Track 2 not present in database
Track 3 not present in database
Track 4 not present in database
Track 5 not present in database
Track 6 not present in database
Track 7 not present in database
Track 8 not present in database
Track 9 not present in database
Track 10 not present in database
Track 11 not present in database
Track 12 not present in database
Track 13 not present in database
Track 14 not present in database
Track 15 not present in database
Track 16 not present in database
Track 17 not present in database

None of the tracks are present in the AccurateRip database

End of status report

---- CUETools DB Plugin V2.1.3

[CTDB TOCID: UI8dK6VpH5MVKpfACirIwIj1I7I-] disk not present in database, Submit result: UI8dK6VpH5MVKpfACirIwIj1I7I- has been uploaded

==== Log checksum DBDCBB1045AB635C9D5C1DDF4D5A9B42DD2E2863886D41B02B1B10A21A388D98 ====
CD2 01
VA - Smooth Sax
01. Charlie Parker - Parker's Mood (3:19)
02. Andi Kissenbeck's Club Boogaloo - Rattle Trap (6:55)
03. Coleman Hawkins - Body And Soul (2:50)
04. Lester Young, Oscar Peterson - I Can't Give You Anything But Love (3:17)
05. Gene Ammons - My Romance (4:10)
06. Stan Getz - Love Is Here To Stay (3:19)
07. Ben Webster - When I Fall In Love (4:55)
08. Charlie Parker With Strings - Summertime (2:44)
09. Earl Bostic - Embraceable You (2:35)
10. Benny Carter Quartet - Everything I Have Is Yours (3:32)
11. Tok Tok Tok - I'll Never Fall In Love (5:33)
12. Randy Brecker with Michael Brecker - Sponge (Live) (6:41)
13. Sonny Stitt - I Didn't Know The Time It Was (4:29)
14. Ike Quebec - What A Difference A Day Makes (4:04)
15. Gerry Mulligan - Making Whoopie (4:03)
16. Jimmy Forest - Bolo Blues (4:05)
17. Maceo Parker - A B C (8:18 )

eac
Exact Audio Copy V1.0 beta 3 from 29. August 2011

EAC extraction logfile from 13. January 2019, 3:23

Various Artists / Sax In The City (Smooth Sax) CD2

Used drive : PIONEER BD-RW BDR-TD03 Adapter: 0 ID: 1

Read mode : Secure
Utilize accurate stream : Yes
Defeat audio cache : Yes
Make use of C2 pointers : No

Read offset correction : 667
Overread into Lead-In and Lead-Out : No
Fill up missing offset samples with silence : Yes
Delete leading and trailing silent blocks : No
Null samples used in CRC calculations : Yes
Used interface : Native Win32 interface for Win NT & 2000

Used output format : User Defined Encoder
Selected bitrate : 768 kBit/s
Quality : High
Add ID3 tag : No
Command line compressor : C:\Program Files (x86)\Exact Audio Copy\FLAC\FLAC.EXE
Additional command line options : -6 -V -T "ARTIST=%artist%" -T "TITLE=%title%" -T "ALBUM=%albumtitle%" -T "DATE=%year%" -T "TRACKNUMBER=%tracknr%" -T "GENRE=%genre%" -T "COMMENT=%comment%" -T "BAND=%albuminterpret%" -T "ALBUMARTIST=%albuminterpret%" -T "COMPOSER=%composer%" %haslyrics%--tag-from-file=LYRICS="%lyricsfile%"%haslyrics% -T "DISCNUMBER=%cdnumber%" -T "TOTALDISCS=%totalcds%" -T "TOTALTRACKS=%numtracks%" %hascover%--picture="%coverfile%"%hascover% %source% -o %dest%

TOC of the extracted CD

Track | Start | Length | Start sector | End sector
---------------------------------------------------------
1 | 0:00.00 | 3:19.54 | 0 | 14978
2 | 3:19.54 | 6:55.17 | 14979 | 46120
3 | 10:14.71 | 2:50.58 | 46121 | 58928
4 | 13:05.54 | 3:17.15 | 58929 | 73718
5 | 16:22.69 | 4:10.67 | 73719 | 92535
6 | 20:33.61 | 3:19.61 | 92536 | 107521
7 | 23:53.47 | 4:55.34 | 107522 | 129680
8 | 28:49.06 | 2:44.50 | 129681 | 142030
9 | 31:33.56 | 2:35.67 | 142031 | 153722
10 | 34:09.48 | 3:32.37 | 153723 | 169659
11 | 37:42.10 | 5:33.45 | 169660 | 194679
12 | 43:15.55 | 6:41.07 | 194680 | 224761
13 | 49:56.62 | 4:29.73 | 224762 | 245009
14 | 54:26.60 | 4:04.05 | 245010 | 263314
15 | 58:30.65 | 4:03.22 | 263315 | 281561
16 | 62:34.12 | 4:05.00 | 281562 | 299936
17 | 66:39.12 | 8:18.66 | 299937 | 337352

Range status and errors

Selected range

Filename C:\Users\Deris\Desktop\kpnemo.eu\Smutsaks\cd2\Various Artists - Sax In The City (Smooth Sax) CD2.wav

Peak level 98.8 %
Extraction speed 5.1 X
Range quality 100.0 %
Test CRC 7B88C66F
Copy CRC 7B88C66F
Copy OK

No errors occurred

AccurateRip summary

Track 1 not present in database
Track 2 not present in database
Track 3 not present in database
Track 4 not present in database
Track 5 not present in database
Track 6 not present in database
Track 7 not present in database
Track 8 not present in database
Track 9 not present in database
Track 10 not present in database
Track 11 not present in database
Track 12 not present in database
Track 13 not present in database
Track 14 not present in database
Track 15 not present in database
Track 16 not present in database
Track 17 not present in database

None of the tracks are present in the AccurateRip database

End of status report

---- CUETools DB Plugin V2.1.3

[CTDB TOCID: DZoqu1sYwWVOBjvdlUgInMJFOaM-] disk not present in database, Submit result: DZoqu1sYwWVOBjvdlUgInMJFOaM- has been uploaded

==== Log checksum 4020C037C07B947CE8CCC3232541C8780FB0B86156118B46EA672B5B45D7B29D ====

Информация о торренте:
Размер содержимого: 909.7 MB
Скачан: 329 раз
Статус: Проверен
Зарегистрирован на трекере: 2019-01-14 11:02
Скачать торрент


Поддержи раздачу — поставь лайк:
Andiata
2019-01-16 22:56
Спасибо огромное, сборник изумительный слушать можно бесконечно :thanks:
rainbow.n
2019-01-17 09:58
Andiata

Пожалуйста ;) :privet:
Писать комментарии на нашем торрент-трекере могут только зарегистрированные пользователи.
Зарегистрируйтесь или авторизируйтесь на сайте.