»
»

Скачать музыку Level 42 - Lessons In Love - The Essentials Level 42 (3CD) / [2017, New Wave, Jazz-Funk, Synthpop, FLAC] - торрент

Скачать музыку бесплатно через торрент.

Статистика раздачи
6 [ 0 b/s ] ↑ 1.5 GB ↓ 0 [ 0 b/s ]
Автор Сообщение
rainbow.n
2019-02-10 20:05
Level 42 - Lessons In Love - The Essentials Level 42
Level 42 - Lessons In Love - The Essentials Level 42 Формат: FLAC, (image + .cue), lossless
Год выпуска: 2017
Страна: United Kingdom
Жанр: New Wave, Jazz-Funk, Synthpop
Продолжительность: 03:50:54
Описание:
CD1 01

01. Lessons In Love (4:02) 1986
02. Running In The Family (3:57) 1987
03. The Chinese Way (3:58 ) 1982
04. Turn It On (4:39) 1981
05. Love Meeting Love (4:44) 1980
06. True Believers (5:00) 1984
07. Two Hearts Collide (4:08 ) 1988
08. Leaving Me Now (5:01) 1985
09. Forty Two (6:38 ) 1981
10. Weave Your Spell (5:28 ) 1982
11. Why Are You Leaving? (4:33) 1981
12. Mr. Pink (5:06) 1980
13. I Sleep On My Heart (4:04) 1985
14. Starchild (Remix) (3:52) 1981
15. The Chant Has Begun (5:15) 1984
16. Seven Days (4:23) 1984

eac
Exact Audio Copy V1.0 beta 6 from 9. April 2015

EAC extraction logfile from 9. February 2019, 11:21

Level 42 / Lessons In Love: The Essential Level 42 [CD 1]

Used drive : ATAPI iHAS122 C Adapter: 1 ID: 0

Read mode : Secure
Utilize accurate stream : Yes
Defeat audio cache : Yes
Make use of C2 pointers : No

Read offset correction : 6
Overread into Lead-In and Lead-Out : No
Fill up missing offset samples with silence : Yes
Delete leading and trailing silent blocks : No
Null samples used in CRC calculations : Yes
Used interface : Native Win32 interface for Win NT & 2000

Used output format : Internal WAV Routines
Sample format : 44.100 Hz; 16 Bit; Stereo

TOC of the extracted CD

Track | Start | Length | Start sector | End sector
---------------------------------------------------------
1 | 0:00.00 | 4:01.62 | 0 | 18136
2 | 4:01.62 | 3:56.42 | 18137 | 35878
3 | 7:58.29 | 3:57.37 | 35879 | 53690
4 | 11:55.66 | 4:39.31 | 53691 | 74646
5 | 16:35.22 | 4:44.18 | 74647 | 95964
6 | 21:19.40 | 5:00.20 | 95965 | 118484
7 | 26:19.60 | 4:07.45 | 118485 | 137054
8 | 30:27.30 | 5:01.10 | 137055 | 159639
9 | 35:28.40 | 6:37.50 | 159640 | 189464
10 | 42:06.15 | 5:27.68 | 189465 | 214057
11 | 47:34.08 | 4:32.40 | 214058 | 234497
12 | 52:06.48 | 5:05.45 | 234498 | 257417
13 | 57:12.18 | 4:03.35 | 257418 | 275677
14 | 61:15.53 | 3:51.62 | 275678 | 293064
15 | 65:07.40 | 5:14.50 | 293065 | 316664
16 | 70:22.15 | 4:23.09 | 316665 | 336398

Range status and errors

Selected range

Filename C:\Users\London\Desktop\Level 42 - Lessons In Love- The Essential Level 42 [CD 1].wav

Peak level 100.0 %
Extraction speed 9.9 X
Range quality 99.9 %
Test CRC DFA450A2
Copy CRC DFA450A2
Copy OK

No errors occurred

AccurateRip summary

Track 1 accurately ripped (confidence 2) [22477A5F] (AR v2)
Track 2 accurately ripped (confidence 2) [48152A0B] (AR v2)
Track 3 accurately ripped (confidence 2) [E23A564E] (AR v2)
Track 4 accurately ripped (confidence 2) [4A493160] (AR v2)
Track 5 accurately ripped (confidence 2) [6D8D98E6] (AR v2)
Track 6 accurately ripped (confidence 2) [BE888648] (AR v2)
Track 7 accurately ripped (confidence 2) [7AAEDBEF] (AR v2)
Track 8 accurately ripped (confidence 2) [706C8D3E] (AR v2)
Track 9 accurately ripped (confidence 2) [7078CB0A] (AR v2)
Track 10 accurately ripped (confidence 2) [D3F66F6E] (AR v2)
Track 11 accurately ripped (confidence 2) [0A9910CF] (AR v2)
Track 12 accurately ripped (confidence 2) [26762979] (AR v2)
Track 13 accurately ripped (confidence 2) [85EC9EF9] (AR v2)
Track 14 accurately ripped (confidence 2) [C324EA6F] (AR v2)
Track 15 accurately ripped (confidence 2) [CFF6310C] (AR v2)
Track 16 accurately ripped (confidence 2) [C370F8AB] (AR v2)

All tracks accurately ripped

End of status report

---- CUETools DB Plugin V2.1.6

[CTDB TOCID: cOi85lw1hbKHV3aMy69LMBt1r4o-] found
Submit result: cOi85lw1hbKHV3aMy69LMBt1r4o- has been confirmed
Track | CTDB Status
1 | (2/2) Accurately ripped
2 | (2/2) Accurately ripped
3 | (2/2) Accurately ripped
4 | (2/2) Accurately ripped
5 | (2/2) Accurately ripped
6 | (2/2) Accurately ripped
7 | (2/2) Accurately ripped
8 | (2/2) Accurately ripped
9 | (2/2) Accurately ripped
10 | (2/2) Accurately ripped
11 | (2/2) Accurately ripped
12 | (2/2) Accurately ripped
13 | (2/2) Accurately ripped
14 | (2/2) Accurately ripped
15 | (2/2) Accurately ripped
16 | (2/2) Accurately ripped

==== Log checksum 92821654B95A8A3D5D4F2AE422361B1666499847CDA9EC1640E7096B5C1B056B ====
CD2 01

01. Something About You (3:44) 1985
02. The Sun Goes Down (Living It Up) (3:44) 1983
03. (Flying On The) Wings Of Love (3:49) 1980
04. It's Over (Remix) (4:40) 1987
05. Are You Hearing (What I Hear)? (4:58 ) 1982
06. Tracie (3:24) 1988
07. To Be With You Again (5:17) 1987
08. "43" (7:01) 1981
09. Out Of Sight Out Of Mind (4:23) 1983
10. World Machine (5:17) 1985
11. Dance On Heavy Weather (4:28 ) 1983
12. Take Care Of Yourself (4:29) 1989
13. Heathrow (4:42) 1981
14. A Floating Life (5:05) 1984
15. Take A Look (4:42) 1988
16. Foundation And Empire (8:28 ) 1981

eac
Exact Audio Copy V1.0 beta 6 from 9. April 2015

EAC extraction logfile from 9. February 2019, 11:51

Level 42 / The Essential Level 42 [CD 2]

Used drive : ATAPI iHAS122 C Adapter: 1 ID: 0

Read mode : Secure
Utilize accurate stream : Yes
Defeat audio cache : Yes
Make use of C2 pointers : No

Read offset correction : 6
Overread into Lead-In and Lead-Out : No
Fill up missing offset samples with silence : Yes
Delete leading and trailing silent blocks : No
Null samples used in CRC calculations : Yes
Used interface : Native Win32 interface for Win NT & 2000

Used output format : Internal WAV Routines
Sample format : 44.100 Hz; 16 Bit; Stereo

TOC of the extracted CD

Track | Start | Length | Start sector | End sector
---------------------------------------------------------
1 | 0:00.00 | 3:44.23 | 0 | 16822
2 | 3:44.23 | 3:43.40 | 16823 | 33587
3 | 7:27.63 | 3:48.50 | 33588 | 50737
4 | 11:16.38 | 4:39.60 | 50738 | 71722
5 | 15:56.23 | 4:58.12 | 71723 | 94084
6 | 20:54.35 | 3:24.10 | 94085 | 109394
7 | 24:18.45 | 5:16.43 | 109395 | 133137
8 | 29:35.13 | 7:00.50 | 133138 | 164687
9 | 36:35.63 | 4:22.54 | 164688 | 184391
10 | 40:58.42 | 5:16.55 | 184392 | 208146
11 | 46:15.22 | 4:28.17 | 208147 | 228263
12 | 50:43.39 | 4:28.64 | 228264 | 248427
13 | 55:12.28 | 4:41.68 | 248428 | 269570
14 | 59:54.21 | 5:04.68 | 269571 | 292438
15 | 64:59.14 | 4:41.52 | 292439 | 313565
16 | 69:40.66 | 8:27.38 | 313566 | 351628

Range status and errors

Selected range

Filename C:\Users\London\Desktop\Level 42 - The Essential Level 42 [CD 2].wav

Peak level 100.0 %
Extraction speed 9.9 X
Range quality 100.0 %
Test CRC 31F71602
Copy CRC 31F71602
Copy OK

No errors occurred

AccurateRip summary

Track 1 accurately ripped (confidence 2) [63A20365] (AR v2)
Track 2 accurately ripped (confidence 2) [5587FB23] (AR v2)
Track 3 accurately ripped (confidence 2) [7BD8DAC2] (AR v2)
Track 4 accurately ripped (confidence 2) [CE243BCF] (AR v2)
Track 5 accurately ripped (confidence 2) [37E1D904] (AR v2)
Track 6 accurately ripped (confidence 2) [7E552B66] (AR v2)
Track 7 accurately ripped (confidence 2) [CECBF004] (AR v2)
Track 8 accurately ripped (confidence 2) [76DEF28D] (AR v2)
Track 9 accurately ripped (confidence 2) [81BCC697] (AR v2)
Track 10 accurately ripped (confidence 2) [F7800EBA] (AR v2)
Track 11 accurately ripped (confidence 2) [9ADDDC71] (AR v2)
Track 12 accurately ripped (confidence 2) (AR v2)
Track 13 accurately ripped (confidence 2) [FDFFE7B9] (AR v2)
Track 14 accurately ripped (confidence 2) [CD649D9E] (AR v2)
Track 15 accurately ripped (confidence 2) [885E89C0] (AR v2)
Track 16 accurately ripped (confidence 2) [980F2B61] (AR v2)

All tracks accurately ripped

End of status report

---- CUETools DB Plugin V2.1.6

[CTDB TOCID: dql.YxviTILJcn_HpyFob3igex8-] found
Submit result: dql.YxviTILJcn_HpyFob3igex8- has been confirmed
Track | CTDB Status
1 | (3/3) Accurately ripped
2 | (3/3) Accurately ripped
3 | (3/3) Accurately ripped
4 | (3/3) Accurately ripped
5 | (3/3) Accurately ripped
6 | (3/3) Accurately ripped
7 | (3/3) Accurately ripped
8 | (3/3) Accurately ripped
9 | (3/3) Accurately ripped
10 | (3/3) Accurately ripped
11 | (3/3) Accurately ripped
12 | (3/3) Accurately ripped
13 | (3/3) Accurately ripped
14 | (3/3) Accurately ripped
15 | (3/3) Accurately ripped
16 | (3/3) Accurately ripped

==== Log checksum 1E51A1CD833C9A27B421ACBF5B7071B1552679C8DCB5B2AEA9A6F499AA91F325 ====
CD3 01

01. Hot Water (3:39) 1984
02. Micro Kid (3:49) 1983
03. Children Say (4:55) 1987
04. Love Games (5:12) 1981
05. Standing In The Light (3:42) 1983
06. Heaven In My Hands (4:09) 1988
07. You Can't Blame Louis (5:04) 1982
08. Sandstorm (4:41) 1980
09. Kansas City Milkman (Live) (7:23) 1985
10. Can't Walk You Home (4:16) 1983
11. Dune Tune (4:50) 1981
12. Hours By The Window (5:04) 1984
13. Good Man In A Storm (4:36) 1985
14. The Sleepwalkers (6:03) 1987
15. The Return Of The Handsome Rugged Man (5:57) 1982
16. Staring At The Sun (4:42) 1981

eac
Exact Audio Copy V1.0 beta 6 from 9. April 2015

EAC extraction logfile from 9. February 2019, 12:31

Level 42 / The Essential Level 42 [CD 3]

Used drive : ATAPI iHAS122 C Adapter: 1 ID: 0

Read mode : Secure
Utilize accurate stream : Yes
Defeat audio cache : Yes
Make use of C2 pointers : No

Read offset correction : 6
Overread into Lead-In and Lead-Out : No
Fill up missing offset samples with silence : Yes
Delete leading and trailing silent blocks : No
Null samples used in CRC calculations : Yes
Used interface : Native Win32 interface for Win NT & 2000

Used output format : Internal WAV Routines
Sample format : 44.100 Hz; 16 Bit; Stereo

TOC of the extracted CD

Track | Start | Length | Start sector | End sector
---------------------------------------------------------
1 | 0:00.00 | 3:39.33 | 0 | 16457
2 | 3:39.33 | 3:48.60 | 16458 | 33617
3 | 7:28.18 | 4:54.45 | 33618 | 55712
4 | 12:22.63 | 5:11.65 | 55713 | 79102
5 | 17:34.53 | 3:42.31 | 79103 | 95783
6 | 21:17.09 | 4:08.63 | 95784 | 114446
7 | 25:25.72 | 5:04.00 | 114447 | 137246
8 | 30:29.72 | 4:41.30 | 137247 | 158351
9 | 35:11.27 | 7:22.55 | 158352 | 191556
10 | 42:34.07 | 4:15.63 | 191557 | 210744
11 | 46:49.70 | 4:49.68 | 210745 | 232487
12 | 51:39.63 | 5:03.54 | 232488 | 255266
13 | 56:43.42 | 4:36.00 | 255267 | 275966
14 | 61:19.42 | 6:02.47 | 275967 | 303163
15 | 67:22.14 | 5:57.35 | 303164 | 329973
16 | 73:19.49 | 4:41.41 | 329974 | 351089

Range status and errors

Selected range

Filename C:\Users\London\Desktop\Level 42 - The Essential Level 42 [CD 3].wav

Peak level 100.0 %
Extraction speed 9.9 X
Range quality 99.9 %
Test CRC 1FA8195D
Copy CRC 1FA8195D
Copy OK

No errors occurred

AccurateRip summary

Track 1 accurately ripped (confidence 2) [E6493551] (AR v2)
Track 2 accurately ripped (confidence 2) [56F38842] (AR v2)
Track 3 accurately ripped (confidence 2) [D358C41B] (AR v2)
Track 4 accurately ripped (confidence 2) [257D6B81] (AR v2)
Track 5 accurately ripped (confidence 2) [90FA4C4D] (AR v2)
Track 6 accurately ripped (confidence 2) [AFD9339D] (AR v2)
Track 7 accurately ripped (confidence 2) [284A43A9] (AR v2)
Track 8 accurately ripped (confidence 2) [52CBE654] (AR v2)
Track 9 accurately ripped (confidence 2) [DE4DCE29] (AR v2)
Track 10 accurately ripped (confidence 2) (AR v2)
Track 11 accurately ripped (confidence 2) [471A2537] (AR v2)
Track 12 accurately ripped (confidence 2) [6D4BBDF3] (AR v2)
Track 13 accurately ripped (confidence 2) (AR v2)
Track 14 accurately ripped (confidence 2) [301D3F2D] (AR v2)
Track 15 accurately ripped (confidence 2) [86C3EC38] (AR v2)
Track 16 accurately ripped (confidence 2) [CCD00B33] (AR v2)

All tracks accurately ripped

End of status report

---- CUETools DB Plugin V2.1.6

[CTDB TOCID: W81iGCBeolvnLEN9rNZ3MpS30yw-] found
Submit result: W81iGCBeolvnLEN9rNZ3MpS30yw- has been confirmed
Track | CTDB Status
1 | (3/3) Accurately ripped
2 | (3/3) Accurately ripped
3 | (3/3) Accurately ripped
4 | (3/3) Accurately ripped
5 | (3/3) Accurately ripped
6 | (3/3) Accurately ripped
7 | (3/3) Accurately ripped
8 | (3/3) Accurately ripped
9 | (3/3) Accurately ripped
10 | (3/3) Accurately ripped
11 | (3/3) Accurately ripped
12 | (3/3) Accurately ripped
13 | (3/3) Accurately ripped
14 | (3/3) Accurately ripped
15 | (3/3) Accurately ripped
16 | (3/3) Accurately ripped

==== Log checksum 3B04393DECEF3D701A8A0B9F65F3E8C84DE1BBF2A0F3E63DC1DCB01AA43D64C2 ====

Информация о торренте:
Размер содержимого: 1.5 GB
Скачан: 198 раз
Статус: Проверен
Зарегистрирован на трекере: 2019-02-10 19:05
Скачать торрент


Поддержи раздачу — поставь лайк:
Писать комментарии на нашем торрент-трекере могут только зарегистрированные пользователи.
Зарегистрируйтесь или авторизируйтесь на сайте.