»
»

Скачать музыку Enuff Z'Nuff - Greatest Hits / [2006, Rock, Glam, FLAC] - торрент

Торрент можно скачать, нажав синюю кнопку ниже.

Статистика раздачи
22 [ 0 b/s ] ↑ 467.8 MB ↓ 0 [ 0 b/s ]
Автор Сообщение
rainbow.n
2019-02-10 20:08
Enuff Z'Nuff - Greatest Hits
Enuff Z'Nuff - Greatest Hits Формат: FLAC, (image + .cue), lossless
Год выпуска: 2006
Страна: USA
Жанр: Rock, Glam
Продолжительность: 00:55:10
Описание:

01. New Thing (4:11)
02. Fly High Michelle (3:50)
03. Baby Loves You (3:56)
04. Mother's Eyes (4:19)
05. Wheels (4:30)
06. One Step Closer (3:37)
07. Freak (4:55)
08. There Goes My Heart (3:29)
09. Believe In Love (4:31)
10. Taken A Ride (4:11)
11. Everything Works If You Let It (3:15)
12. My Heroin (3:53)
13. Time To Let You Go (2:53)
14. Gorgeous (3:40)


Доп. информация:
eac
Exact Audio Copy V1.0 beta 3 from 29. August 2011

EAC extraction logfile from 8. February 2019, 21:06

Enuff Z'Nuff / Greatest Hits

Used drive : PIONEER BD-RW BDR-TD03 Adapter: 0 ID: 1

Read mode : Secure
Utilize accurate stream : Yes
Defeat audio cache : Yes
Make use of C2 pointers : No

Read offset correction : 667
Overread into Lead-In and Lead-Out : No
Fill up missing offset samples with silence : Yes
Delete leading and trailing silent blocks : No
Null samples used in CRC calculations : Yes
Used interface : Native Win32 interface for Win NT & 2000

Used output format : User Defined Encoder
Selected bitrate : 768 kBit/s
Quality : High
Add ID3 tag : No
Command line compressor : C:\Program Files (x86)\Exact Audio Copy\FLAC\FLAC.EXE
Additional command line options : -6 -V -T "ARTIST=%artist%" -T "TITLE=%title%" -T "ALBUM=%albumtitle%" -T "DATE=%year%" -T "TRACKNUMBER=%tracknr%" -T "GENRE=%genre%" -T "COMMENT=%comment%" -T "BAND=%albuminterpret%" -T "ALBUMARTIST=%albuminterpret%" -T "COMPOSER=%composer%" %haslyrics%--tag-from-file=LYRICS="%lyricsfile%"%haslyrics% -T "DISCNUMBER=%cdnumber%" -T "TOTALDISCS=%totalcds%" -T "TOTALTRACKS=%numtracks%" %hascover%--picture="%coverfile%"%hascover% %source% -o %dest%

TOC of the extracted CD

Track | Start | Length | Start sector | End sector
---------------------------------------------------------
1 | 0:00.00 | 4:11.49 | 0 | 18873
2 | 4:11.49 | 3:50.62 | 18874 | 36185
3 | 8:02.36 | 3:56.67 | 36186 | 53952
4 | 11:59.28 | 4:19.68 | 53953 | 73445
5 | 16:19.21 | 4:30.57 | 73446 | 93752
6 | 20:50.03 | 3:37.59 | 93753 | 110086
7 | 24:27.62 | 4:55.46 | 110087 | 132257
8 | 29:23.33 | 3:29.01 | 132258 | 147933
9 | 32:52.34 | 4:31.14 | 147934 | 168272
10 | 37:23.48 | 4:11.32 | 168273 | 187129
11 | 41:35.05 | 3:15.53 | 187130 | 201807
12 | 44:50.58 | 3:53.58 | 201808 | 219340
13 | 48:44.41 | 2:53.35 | 219341 | 232350
14 | 51:38.01 | 3:40.24 | 232351 | 248874

Range status and errors

Selected range

Filename C:\Users\Deris\Desktop\kpnemo.eu\EnuZnu\Enuff Z'Nuff - Greatest Hits.wav

Peak level 100.0 %
Extraction speed 4.6 X
Range quality 99.9 %
Test CRC DB8C63B0
Copy CRC DB8C63B0
Copy OK

No errors occurred

AccurateRip summary

Track 1 cannot be verified as accurate (confidence 2) [2E19F625], AccurateRip returned [9D55FF76] (AR v2)
Track 2 cannot be verified as accurate (confidence 2) [DB751ED0], AccurateRip returned [F9584A12] (AR v2)
Track 3 cannot be verified as accurate (confidence 2) [C4736286], AccurateRip returned [ECDE689F] (AR v2)
Track 4 cannot be verified as accurate (confidence 2) [193B1BDA], AccurateRip returned [BF5E44C3] (AR v2)
Track 5 cannot be verified as accurate (confidence 2) , AccurateRip returned [461C33AC] (AR v2)
Track 6 cannot be verified as accurate (confidence 2) [0FC83628], AccurateRip returned [AEB20AAB] (AR v2)
Track 7 cannot be verified as accurate (confidence 2) [8315EAE3], AccurateRip returned [F6DE66BD] (AR v2)
Track 8 cannot be verified as accurate (confidence 2) [E81E7912], AccurateRip returned [8FAC5A7D] (AR v2)
Track 9 cannot be verified as accurate (confidence 2) [AEE7BC7F], AccurateRip returned [51F132EB] (AR v2)
Track 10 cannot be verified as accurate (confidence 2) [6B16DC00], AccurateRip returned [2D03067C] (AR v2)
Track 11 cannot be verified as accurate (confidence 2) [1C0E6469], AccurateRip returned [54EC46DE] (AR v2)
Track 12 cannot be verified as accurate (confidence 2) , AccurateRip returned [541A5B4F] (AR v2)
Track 13 cannot be verified as accurate (confidence 2) [A0FE6D9C], AccurateRip returned [5841AB1A] (AR v2)
Track 14 cannot be verified as accurate (confidence 2) [9C427090], AccurateRip returned [52B76E6F] (AR v2)

No tracks could be verified as accurate
You may have a different pressing from the one(s) in the database

End of status report

---- CUETools DB Plugin V2.1.3

[CTDB TOCID: QxYZZmGjIl3k.slXm79Gnf2732I-] found, Submit result: already submitted
[a38b6a16] (5/5) Accurately ripped

==== Log checksum ECE8A41B12D717E945397AE51A4FAFC1D1A76AE69123F15120381146A91B1F9B ====

Информация о торренте:
Размер содержимого: 467.8 MB
Скачан: 353 раза
Статус: Проверен
Зарегистрирован на трекере: 2019-02-10 19:08
Скачать торрент


Поддержи раздачу — поставь лайк:
Писать комментарии на нашем торрент-трекере могут только зарегистрированные пользователи.
Зарегистрируйтесь или авторизируйтесь на сайте.