»
»

Скачать музыку Whitesnake - Slide It In: The Ultimate Edition (35th Anniversary Remaster) / [24 bit 96 khz] [2019, Rock, FLAC] - торрент

Нажмите на синюю кнопку ниже, чтобы скачать музыку бесплатно через торрент.

Статистика раздачи
139 [ 449.0 KB/s ] ↑ 5.7 GB ↓ 0 [ 0 b/s ]
Автор Сообщение
rainbow.n
2019-03-11 19:03
Whitesnake - Slide It In: The Ultimate Edition (35th Anniversary Remaster) [24 bit 96 khz]
Whitesnake - Slide It In: The Ultimate Edition Формат: FLAC, tracks, lossless
Год выпуска: 2019
Страна: UK
Жанр: Rock
Продолжительность: 04:28:31
Описание:
Треклист
01. Gambler (US Mix) [2019 Remaster] (3:57)
02. Slide It In (US Mix) [2019 Remaster] (3:19)
03. Slow An' Easy (US Mix) [2019 Remaster] (6:01)
04. Love Ain't No Stranger (US Mix) [2019 Remaster] (4:14)
05. Give Me More Time (US Mix) [2019 Remaster] (3:42)
06. Standing in the Shadow (US Mix) [2019 Remaster] (3:39)
07. Hungry for Love (US Mix) [2019 Remaster] (3:29)
08. All or Nothing (US Mix) [2019 Remaster] (3:41)
09. Spit It Out (US Mix) [2019 Remaster] (4:28 )
10. Guilty of Love (US Mix) [2019 Remaster] (3:25)
11. Gambler (UK Mix) [2019 Remaster] (3:59)
12. Slide It In (UK Mix) [2019 Remaster] (3:18 )
13. Slow An' Easy (UK Mix) [2019 Remaster] (6:00)
14. Love Ain't No Stranger (UK Mix) [2019 Remaster] (4:07)
15. Give Me More Time (UK Mix) [2019 Remaster] (3:42)
16. Standing in the Shadow (UK Mix) [2019 Remaster] (3:35)
17. Hungry for Love (UK Mix) [2019 Remaster] (3:58 )
18. All or Nothing (UK Mix) [2019 Remaster] (3:41)
19. Spit It Out (UK Mix) [2019 Remaster] (4:14)
20. Guilty of Love (UK Mix) [2019 Remaster] (3:24)
21. Need Your Love So Bad (Single B-Side) [2019 Remaster] (3:14)
22. Gambler (7" Eddie Kramer Mix 1983) [2019 Remaster] (4:01)
23. Guilty of Love (7" Eddie Kramer Mix 1983) [2019 Remaster] (3:24)
24. Slide It In (2019 Remix) (3:20)
25. Slow An' Easy (2019 Remix) (6:07)
26. Love Ain't No Stranger (2019 Remix) (4:19)
27. Give Me More Time (2019 Remix) (3:40)
28. Guilty of Love (2019 Remix) (3:24)
29. All or Nothing (2019 Remix) (3:48 )
30. Spit It Out (2019 Remix) (4:19)
31. Standing in the Shadow (2019 Remix) (3:25)
32. Hungry for Love (2019 Remix) (4:23)
33. Gambler (2019 Remix) (3:57)
34. Need Your Love So Bad (2019 Remix) (3:25)
35. Intro to Gambler from David Coverdale (0:21)
36. Gambler (Monitor Mix) [1983] (3:58 )
37. Standing in the Shadow (Monitor Mix) [1983] (3:36)
38. Intro to Slide It In from David Coverdale (0:28 )
39. Slide It In (Monitor Mix) [1983] (3:19)
40. Give Me More Time (Monitor Mix) [1983] (3:41)
41. Intro to Love Ain't No Stranger from David Coverdale (0:13)
42. Love Ain't No Stranger (Monitor Mix) [1983] (4:18 )
43. Hungry for Love (Monitor Mix) [1983] (4:23)
44. Intro to Guilty of Love from David Coverdale (0:23)
45. Guilty of Love (Monitor Mix) [1983] (3:23)
46. Spit It Out (Monitor Mix) [1983] (4:26)
47. Intro to Slow An' Easy from David Coverdale (0:26)
48. Slow An' Easy (Monitor Mix) [1983] (5:59)
49. All or Nothing (Monitor Mix) [1983] (3:54)
50. David Coverdale discusses the US vs. UK versions of Slide It In (0:51)
51. Gambler (Jon Lord's Last Whitesnake Show, Sweden, April 16th, 1984) (3:25)
52. Guilty of Love (Jon Lord's Last Whitesnake Show, Sweden, April 16th, 1984) (3:58 )
53. Love Ain't No Stranger (Jon Lord's Last Whitesnake Show, Sweden, April 16th, 1984) (4:29)
54. Ready An' Willing (Jon Lord's Last Whitesnake Show, Sweden, April 16th, 1984) (4:20)
55. All or Nothing (Early Ruff Mix with Unfinished Lyrics) (3:27)
56. Hungry for Love (Early Ruff Mix with Unfinished Lyrics) (4:22)
57. Spit It Out (Early Ruff Mix with Unfinished Lyrics) (4:30)
58. Give Me More Time (Early Ruff Mix with Unfinished Lyrics) (3:40)
59. Slow An' Easy (Early Ruff Mix with Unfinished Lyrics) (6:06)
60. Love Ain't No Stranger (Early Ruff Mix with Unfinished Lyrics) (4:22)
61. Need Your Love So Bad (feat. Jon Lord) [Instrumental] [Early Ruff Mix with Unfinished Lyrics] (3:15)
62. Slow An' Easy (A Capella Excerpts Remix) (1:17)
63. All Or Nothing (Organ & Drums Excerpts Remix) (1:36)
64. Wheezy Interludes (Various Alcoholic Studio Antics, David and Mel "fighting a cold")) (6:54)
65. Slow An' Easy (Original Demo) (3:54)
66. Slide It In (Original Demo) (0:44)
67. Standing in the Shadow (Original Demo) (2:50)
68. All or Nothing (Original Demo) (1:55)
69. Spit It Out (Original Demo) (1:20)
70. Guilty of Love (Original Demo) (2:22)
71. Love Ain't No Stranger (Original Demo) (1:20)
72. Intro to Need Your Love So Bad from David Coverdale (0:33)
73. Need Your Love So Bad (Original Demo) (3:24)
74. Body Heat (Unfinished Symphpnies Original Demo) (2:17)
75. The Gypsy in You (Unfinished Symphonies) (1:48 )
76. Lounge Lizards (Unfinished Symphonies) (1:46)
77. Great Riff in the Morning (Unfinished Symphonies) (0:24)
78. The River Song (Unfinished Symphonies) (0:57)
79. Can't Make a Deal With the Devil (Unfinished Symphonies) (1:56)
80. Prayer for the Dying (Unfinished Symphonies) (2:15)
81. Spend the Night With Me (Unfinished Symphonies) (1:28 )
82. So Much to Live for (Unfinished Symphonies) (1:05)
83. Riff Raff Blues (Unfinished Symphonies) (1:21)
84. Thank You Blues (Unfinished Symphonies) (0:51)

Доп. информация:
Log
foobar2000 1.4.2 / Замер динамического диапазона (DR) 1.1.1
Дата отчёта: 2019-03-08 08:53:08

--------------------------------------------------------------------------------
Анализ: Whitesnake / Slide It In: The Ultimate Edition (2019 Remaster)
--------------------------------------------------------------------------------

DR Пики RMS Продолжительность трека
--------------------------------------------------------------------------------
DR10 -0.22 дБ -11.33 дБ 3:57 01-Gambler (US Mix) [2019 Remaster]
DR10 -0.23 дБ -11.34 дБ 3:19 02-Slide It In (US Mix) [2019 Remaster]
DR9 -0.22 дБ -12.16 дБ 6:01 03-Slow An' Easy (US Mix) [2019 Remaster]
DR10 -0.23 дБ -11.97 дБ 4:14 04-Love Ain't No Stranger (US Mix) [2019 Remaster]
DR10 -0.22 дБ -10.86 дБ 3:42 05-Give Me More Time (US Mix) [2019 Remaster]
DR9 -0.23 дБ -10.34 дБ 3:39 06-Standing in the Shadow (US Mix) [2019 Remaster]
DR9 -0.22 дБ -10.35 дБ 3:29 07-Hungry for Love (US Mix) [2019 Remaster]
DR9 -0.22 дБ -10.36 дБ 3:41 08-All or Nothing (US Mix) [2019 Remaster]
DR9 -0.23 дБ -10.84 дБ 4:28 09-Spit It Out (US Mix) [2019 Remaster]
DR9 -0.22 дБ -10.28 дБ 3:25 10-Guilty of Love (US Mix) [2019 Remaster]
DR9 -0.22 дБ -10.85 дБ 3:59 11-Gambler (UK Mix) [2019 Remaster]
DR9 -0.22 дБ -10.15 дБ 3:18 12-Slide It In (UK Mix) [2019 Remaster]
DR9 -0.22 дБ -11.67 дБ 6:00 13-Slow An' Easy (UK Mix) [2019 Remaster]
DR9 -0.22 дБ -10.98 дБ 4:07 14-Love Ain't No Stranger (UK Mix) [2019 Remaster]
DR9 -0.22 дБ -10.03 дБ 3:42 15-Give Me More Time (UK Mix) [2019 Remaster]
DR8 -0.22 дБ -10.04 дБ 3:35 16-Standing in the Shadow (UK Mix) [2019 Remaster]
DR9 -0.22 дБ -10.23 дБ 3:58 17-Hungry for Love (UK Mix) [2019 Remaster]
DR9 -0.22 дБ -10.68 дБ 3:41 18-All or Nothing (UK Mix) [2019 Remaster]
DR9 -0.22 дБ -10.66 дБ 4:14 19-Spit It Out (UK Mix) [2019 Remaster]
DR8 -0.22 дБ -9.15 дБ 3:24 20-Guilty of Love (UK Mix) [2019 Remaster]
DR8 -0.22 дБ -13.00 дБ 3:14 21-Need Your Love So Bad (Single B-Side) [2019 Remaster]
DR8 -0.21 дБ -9.62 дБ 4:01 22-Gambler (7" Eddie Kramer Mix 1983) [2019 Remaster]
DR8 -0.22 дБ -9.04 дБ 3:24 23-Guilty of Love (7" Eddie Kramer Mix 1983) [2019 Remaster]
DR5 -1.03 дБ -7.24 дБ 3:20 24-Slide It In (2019 Remix)
DR5 -1.03 дБ -8.60 дБ 6:07 25-Slow An' Easy (2019 Remix)
DR5 -1.03 дБ -8.00 дБ 4:19 26-Love Ain't No Stranger (2019 Remix)
DR5 -1.03 дБ -6.71 дБ 3:40 27-Give Me More Time (2019 Remix)
DR5 -1.03 дБ -6.62 дБ 3:24 28-Guilty of Love (2019 Remix)
DR5 -1.03 дБ -6.77 дБ 3:48 29-All or Nothing (2019 Remix)
DR5 -1.03 дБ -6.72 дБ 4:19 30-Spit It Out (2019 Remix)
DR5 -1.03 дБ -6.77 дБ 3:25 31-Standing in the Shadow (2019 Remix)
DR5 -1.03 дБ -6.69 дБ 4:23 32-Hungry for Love (2019 Remix)
DR5 -1.03 дБ -7.31 дБ 3:57 33-Gambler (2019 Remix)
DR9 -1.03 дБ -13.77 дБ 3:25 34-Need Your Love So Bad (2019 Remix)
DR17 -0.53 дБ -21.40 дБ 0:21 35-Intro to Gambler from David Coverdale
DR7 -0.05 дБ -8.67 дБ 3:58 36-Gambler (Monitor Mix) [1983]
DR7 -0.05 дБ -8.32 дБ 3:36 37-Standing in the Shadow (Monitor Mix) [1983]
DR18 -1.38 дБ -21.33 дБ 0:28 38-Intro to Slide It In from David Coverdale
DR8 -0.05 дБ -9.03 дБ 3:19 39-Slide It In (Monitor Mix) [1983]
DR7 -0.05 дБ -8.31 дБ 3:41 40-Give Me More Time (Monitor Mix) [1983]
DR17 -2.59 дБ -23.00 дБ 0:13 41-Intro to Love Ain't No Stranger from David Coverdale
DR6 -0.05 дБ -8.33 дБ 4:18 42-Love Ain't No Stranger (Monitor Mix) [1983]
DR8 -0.05 дБ -8.94 дБ 4:23 43-Hungry for Love (Monitor Mix) [1983]
DR19 -1.61 дБ -22.33 дБ 0:23 44-Intro to Guilty of Love from David Coverdale
DR8 -0.05 дБ -8.55 дБ 3:23 45-Guilty of Love (Monitor Mix) [1983]
DR7 -0.05 дБ -9.21 дБ 4:26 46-Spit It Out (Monitor Mix) [1983]
DR18 -1.67 дБ -22.31 дБ 0:26 47-Intro to Slow An' Easy from David Coverdale
DR8 -0.05 дБ -10.07 дБ 5:59 48-Slow An' Easy (Monitor Mix) [1983]
DR7 -0.05 дБ -8.13 дБ 3:54 49-All or Nothing (Monitor Mix) [1983]
DR18 -1.07 дБ -21.90 дБ 0:51 50-David Coverdale discusses the US vs. UK versions of Slide It In
DR6 -0.05 дБ -6.97 дБ 3:25 51-Gambler (Jon Lord's Last Whitesnake Show, Sweden, April 16th, 1984)
DR5 -0.05 дБ -5.95 дБ 3:58 52-Guilty of Love (Jon Lord's Last Whitesnake Show, Sweden, April 16th, 1984)
DR5 -0.05 дБ -6.89 дБ 4:29 53-Love Ain't No Stranger (Jon Lord's Last Whitesnake Show, Sweden, April 16th, 1984)
DR6 -0.05 дБ -6.80 дБ 4:20 54-Ready An' Willing (Jon Lord's Last Whitesnake Show, Sweden, April 16th, 1984)
DR8 -0.05 дБ -9.18 дБ 3:27 55-All or Nothing (Early Ruff Mix with Unfinished Lyrics)
DR8 -0.05 дБ -10.06 дБ 4:22 56-Hungry for Love (Early Ruff Mix with Unfinished Lyrics)
DR7 -0.05 дБ -8.44 дБ 4:30 57-Spit It Out (Early Ruff Mix with Unfinished Lyrics)
DR9 -0.05 дБ -9.82 дБ 3:40 58-Give Me More Time (Early Ruff Mix with Unfinished Lyrics)
DR9 -0.05 дБ -11.55 дБ 6:06 59-Slow An' Easy (Early Ruff Mix with Unfinished Lyrics)
DR8 -0.05 дБ -9.93 дБ 4:22 60-Love Ain't No Stranger (Early Ruff Mix with Unfinished Lyrics)
DR9 -0.05 дБ -14.27 дБ 3:15 61-Need Your Love So Bad (feat. Jon Lord) [Instrumental] [Early Ruff Mix with Unfinished Lyrics]
DR10 -0.05 дБ -13.75 дБ 1:17 62-Slow An' Easy (A Capella Excerpts Remix)
DR9 -0.05 дБ -11.10 дБ 1:36 63-All Or Nothing (Organ & Drums Excerpts Remix)
DR8 -0.05 дБ -11.54 дБ 6:54 64-Wheezy Interludes (Various Alcoholic Studio Antics, David and Mel "fighting a cold"))
DR9 -0.05 дБ -10.64 дБ 3:54 65-Slow An' Easy (Original Demo)
DR9 -0.17 дБ -11.54 дБ 0:44 66-Slide It In (Original Demo)
DR10 -0.05 дБ -12.49 дБ 2:50 67-Standing in the Shadow (Original Demo)
DR9 -1.20 дБ -12.40 дБ 1:55 68-All or Nothing (Original Demo)
DR10 -0.05 дБ -12.37 дБ 1:20 69-Spit It Out (Original Demo)
DR10 -1.36 дБ -12.51 дБ 2:22 70-Guilty of Love (Original Demo)
DR10 -0.05 дБ -12.77 дБ 1:20 71-Love Ain't No Stranger (Original Demo)
DR15 -1.32 дБ -20.67 дБ 0:33 72-Intro to Need Your Love So Bad from David Coverdale
DR9 -0.98 дБ -12.74 дБ 3:24 73-Need Your Love So Bad (Original Demo)
DR10 -0.05 дБ -10.45 дБ 2:17 74-Body Heat (Unfinished Symphpnies Original Demo)
DR11 -0.08 дБ -12.14 дБ 1:48 75-The Gypsy in You (Unfinished Symphonies)
DR8 -0.09 дБ -9.20 дБ 1:46 76-Lounge Lizards (Unfinished Symphonies)
DR7 -2.66 дБ -10.75 дБ 0:24 77-Great Riff in the Morning (Unfinished Symphonies)
DR9 -0.05 дБ -9.44 дБ 0:57 78-The River Song (Unfinished Symphonies)
DR12 -0.13 дБ -14.27 дБ 1:56 79-Can't Make a Deal With the Devil (Unfinished Symphonies)
DR11 -0.05 дБ -13.47 дБ 2:15 80-Prayer for the Dying (Unfinished Symphonies)
DR8 -0.05 дБ -8.91 дБ 1:28 81-Spend the Night With Me (Unfinished Symphonies)
DR10 -0.05 дБ -10.65 дБ 1:05 82-So Much to Live for (Unfinished Symphonies)
DR10 -0.05 дБ -11.59 дБ 1:21 83-Riff Raff Blues (Unfinished Symphonies)
DR13 -0.05 дБ -15.44 дБ 0:51 84-Thank You Blues (Unfinished Symphonies)
--------------------------------------------------------------------------------

Количество треков: 84
Реальные значения DR: DR9

Частота: 96000 Гц
Каналов: 2
Разрядность: 24
Битрейт: 2510 кбит/с
Кодек: FLAC
================================================================================

Информация о торренте:
Размер содержимого: 5.7 GB
Скачан: 236 раз
Статус: Проверен
Зарегистрирован на трекере: 2019-03-11 18:03
Скачать торрент


Поддержи раздачу — поставь лайк:
Писать комментарии на нашем торрент-трекере могут только зарегистрированные пользователи.
Зарегистрируйтесь или авторизируйтесь на сайте.