»
»

Скачать Олег Митяев - Из ничегонеделанья / [2004, Авторская песня, DVD5] - торрент

Скачать бесплатный торрент .

Статистика раздачи
4 [ 0 b/s ] ↑ 4.3 GB ↓ 0 [ 0 b/s ]
Автор Сообщение
cobra2000
2019-03-14 22:22
Олег Митяев - Из ничегонеделанья
Олег Митяев - Из ничегонеделанья    Формат: DVD5, DVD Video, MPEG2, AC3
Песня: Из ничегонеделанья
Жанр: Авторская песня
Продолжительность: 01:52:24
Год выпуска: 2004

Видео: 720х576 (PAL 5:4), 25,000 fps, MPEG-2, 4967 kbps avg, 0.479 bit/pixel
Аудио: 48.0 КГц, Audio Coding 3, 2 ch, 256 kbps

Доп. информация: 29 февраля 2004 года в Государственном Кремлевском Дворце автор и исполнитель Олег Митяев представил публике свою новую программу «Из ничегонеделанья».
Все песни -- как известные и всеми любимые («Лето -- это маленькая жизнь», «Соседка», «Француженка»), так и совершенно новые («Из ничегонеделанья», «Поручик», «Благодать» и др.) прозвучали в эти дни на сцене Кремля в исполнении Олега Митяева и Леонида Марголина.


Треклист:
01 Давай с тобой поговорим
02 Дорога
03 Из ничегонеделанья
04 Поручик
05 Благодать
06 Соседка
07 Травник
08 Небесный калькулятор
09 Хроники перестройки
10 Мама
11 Мой отец
12 Волга
13 Западная Сибирь
14 Лето-это маленькая жизнь
15 Царица Непала
16 Намастэ
17 Норильск
18 В урочный час
19 Француженка
20 Сослагательная песня
21 Ах, ты палуба, палуба
22 Крепитесь, люди
23 Как здорово
24 Воскресенье
25 Чужая война


MediaInfo
Общее
Полное имя : D:Tfileoleg_mitjaev_concert_[tfile.ru]VIDEO_TSVTS_01_1.VOB
Формат : MPEG-PS
Размер файла : 1024 Мбайт
Продолжительность : 26 м. 52 с.
Режим общего битрейта : Постоянный
Общий поток : 5329 Кбит/сек

Видео
Идентификатор : 224 (0xE0)
Формат : MPEG Video
Версия формата : Version 2
Профиль формата : Main@High
Параметр BVOP формата : Нет
Параметр матрицы формата : По умолчанию
Параметр GOP формата : N=15
Продолжительность : 26 м. 52 с.
Вид битрейта : Постоянный
Битрейт : 4967 Кбит/сек
Максимальный битрейт : 8000 Кбит/сек
Ширина : 720 пикселей
Высота : 576 пикселей
Соотношение сторон : 5:4
Частота кадров : 25,000 кадров/сек
Стандарт вещания : PAL
Цветовое пространство : YUV
Субдискретизация насыщенности : 4:2:0
Битовая глубина : 8 бит
Тип развёртки : Прогрессивная
Метод сжатия : С потерями
Бит/(Пиксели*Кадры) : 0.479
Временной код первого кадра : 00:00:00:00
Оригинал временного кода : Group of pictures header
GOP, открыто/закрыто : Закрыто
Размер потока : 954 Мбайт (93%)
Основные цвета : BT.601 PAL
Характеристики трансфера : BT.470 System B, BT.470 System G
Коэффициенты матрицы : BT.601

Аудио
Идентификатор : 189 (0xBD)-128 (0x80)
Формат : AC-3
Формат/Информация : Audio Coding 3
Параметр Endianness формата : Big
Режим смешивания : DVD-Video
Продолжительность : 26 м. 51 с.
Вид битрейта : Постоянный
Битрейт : 256 Кбит/сек
Каналы : 2 канала
Расположение каналов : Front: L R
Частота : 48,0 КГц
Частота кадров : 31,250 кадров/сек (1536 spf)
Битовая глубина : 16 бит
Метод сжатия : С потерями
Задержка видео : -8 мс.
Размер потока : 49,2 Мбайт (5%)
ServiceKind/String : Complete Main



Информация о торренте:
Размер содержимого: 4.3 GB
Скачан: 152 раза
Статус: Проверен
Зарегистрирован на трекере: 2019-03-14 21:22
Скачать торрент


Поддержи раздачу — поставь лайк:
Писать комментарии на нашем торрент-трекере могут только зарегистрированные пользователи.
Зарегистрируйтесь или авторизируйтесь на сайте.