»
»

Скачать музыку Stevie Wonder – Stevie Wonder's Original Musiquarium I (Vinyl rip 24 bit 96 khz) / [1982, Soul, Disco, Funk, FLAC] - торрент

Торрент можно скачать, нажав синюю кнопку ниже.

Статистика раздачи
0 [ 0 b/s ] ↑ 1.7 GB ↓ 0 [ 0 b/s ]
Автор Сообщение
rainbow.n
2019-04-15 16:18
Stevie Wonder – Stevie Wonder's Original Musiquarium I (Vinyl rip 24 bit 96 khz)
Stevie Wonder – Stevie Wonder's Original Musiquarium I Формат: FLAC, tracks, lossless
Год выпуска: 1982
Страна: USA
Жанр: Soul, Disco, Funk
Продолжительность: 01:25:32
Описание:

A1. Superstition - 4.25
A2. You Haven't Done Nothin' - 3.29
A3. Living For The City - 7.26
A4. Front Line - 5.56

B1. Superwoman (Where Were You When I Needed You) - 7.58
B2. Send One Your Love - 4.02
B3. You Are The Sunshine Of My Life - 2.51
B4. Ribbon In The Sky - 5.35

C1. Higher Ground - 3.46
C2. Sir Duke - 3.52
C3. Master Blaster (Jammin') - 5.08
C4. Boogie On Reggae Woman - 4.55
C5. That Girl - 5.15

D1. I Wish - 4.12
D2. Isn't She Lovely - 6.32
D3. Do I Do - 10.27


Доп. информация:
Log
foobar2000 1.1.10 / Dynamic Range Meter 1.1.1
log date: 2019-04-15 13:27:48

--------------------------------------------------------------------------------
Analyzed: ? / ?
--------------------------------------------------------------------------------

DR Peak RMS Duration Track
--------------------------------------------------------------------------------
DR14 -0.26 dB -15.32 dB 4:30 ?-A1. Superstition
DR14 -0.26 dB -15.12 dB 3:25 ?-A2. You Haven't Done Nothin'
DR13 -0.26 dB -16.29 dB 7:24 ?-A3. Living For The City
DR17 -0.26 dB -18.56 dB 5:56 ?-A4. Front Line
DR12 -0.26 dB -13.35 dB 7:58 ?-B1. Superwoman (Where Were You When I Needed You)
DR15 -0.26 dB -16.48 dB 4:01 ?-B2. Send One Your Love
DR13 -0.26 dB -15.99 dB 2:50 ?-B3. You Are The Sunshine Of My Life
DR13 -0.26 dB -18.31 dB 5:32 ?-B4. Ribbon In The Sky
DR15 -0.26 dB -17.45 dB 3:47 ?-C1. Higher Ground
DR15 -0.26 dB -17.38 dB 3:53 ?-C2. Sir Duke
DR17 -0.26 dB -19.44 dB 5:05 ?-C3. Master Blaster (Jammin')
DR15 -0.26 dB -16.45 dB 4:50 ?-C4. Boogie On Reggae Woman
DR15 -0.26 dB -17.24 dB 5:10 ?-C5. That Girl
DR14 -0.26 dB -15.61 dB 4:13 ?-D1. I Wish
DR15 -0.26 dB -15.83 dB 6:33 ?-D2. Isn't She Lovely
DR15 -0.26 dB -17.16 dB 10:27 ?-D3. Do I Do
--------------------------------------------------------------------------------

Number of tracks: 16
Official DR value: DR14

Samplerate: 96000 Hz
Channels: 2
Bits per sample: 24
Bitrate: 2839 kbps
Codec: FLAC
================================================================================

Информация о торренте:
Размер содержимого: 1.7 GB
Скачан: 164 раза
Статус: Проверен
Зарегистрирован на трекере: 2019-04-15 15:18
Скачать торрент


Поддержи раздачу — поставь лайк:
Писать комментарии на нашем торрент-трекере могут только зарегистрированные пользователи.
Зарегистрируйтесь или авторизируйтесь на сайте.