»
»

Скачать Garbage - Live At Bizarre / [1996, Alternative Rock, DVD5] - торрент

Скачать через торрент вы можете, нажав на синюю кнопку.

Статистика раздачи
0 [ 0 b/s ] ↑ 3.2 GB ↓ 0 [ 0 b/s ]
Автор Сообщение
cobra2000
2019-05-13 21:29
Garbage - Live At Bizarre
Garbage - Live At Bizarre   Формат: DVD5, DVD Video, MPEG2, AC3
Песня: Live At Bizarre
Жанр: Alternative Rock
Продолжительность: 00:53:42
Год выпуска: 1996

Видео: 720х576 (PAL 4:3), 25,000 fps, MPEG-2, ~8265 kbps avg, 0.797 bit/pixel
Аудио: 48.0 КГц, Audio Coding 3, 2 ch, 192 kbps

Доп. информация: Garbage (в переводе с англ. — «мусор») — британско-американская рок-группа, сформированная в городе Мэдисон в 1994 году. В состав группы входит шотландская певица Ширли Мэнсон. Коллектив стал известен своим необычным звучанием, выразительным вокалом солистки, а также инновационными средствами обработки звука. Garbage являются одной из наиболее успешных рок-групп 1990-х годов. Всего в мире продано более 17 миллионов экземпляров альбомов Выступление Garbage на рок-фесте Bizarre в 1996 году.

Треклист:
01 Queer
02 Fix Me Now
03 Not My Idea
04 Dog New Tricks
05 My Lover's Box
06 Milk
07 Supervixen
08 Stupid Girl
09 Trip My Wire
10 Only Happy When It Rains
11 Vow


MediaInfo
Общее
Полное имя : D:Tfilegarbage_bizarre_[tfile.ru]VIDEO_TSVTS_01_1.VOB
Формат : MPEG-PS
Размер файла : 1024 Мбайт
Продолжительность : 16 м. 35 с.
Режим общего битрейта : Переменный
Общий поток : 8629 Кбит/сек

Видео
Идентификатор : 224 (0xE0)
Формат : MPEG Video
Версия формата : Version 2
Профиль формата : Main@Main
Параметр BVOP формата : Да
Параметр матрицы формата : По умолчанию
Параметр GOP формата : M=3, N=13
Продолжительность : 16 м. 35 с.
Вид битрейта : Переменный
Битрейт : 8265 Кбит/сек
Максимальный битрейт : 9008 Кбит/сек
Ширина : 720 пикселей
Высота : 576 пикселей
Соотношение сторон : 4:3
Частота кадров : 25,000 кадров/сек
Стандарт вещания : PAL
Цветовое пространство : YUV
Субдискретизация насыщенности : 4:2:0
Битовая глубина : 8 бит
Тип развёртки : Прогрессивная
Метод сжатия : С потерями
Бит/(Пиксели*Кадры) : 0.797
Временной код первого кадра : 00:00:00:00
Оригинал временного кода : Group of pictures header
GOP, открыто/закрыто : Закрыто
Размер потока : 981 Мбайт (96%)

Аудио
Идентификатор : 189 (0xBD)-128 (0x80)
Формат : AC-3
Формат/Информация : Audio Coding 3
Параметр Endianness формата : Big
Режим смешивания : DVD-Video
Продолжительность : 16 м. 35 с.
Вид битрейта : Постоянный
Битрейт : 192 Кбит/сек
Каналы : 2 канала
Расположение каналов : Front: L R
Частота : 48,0 КГц
Частота кадров : 31,250 кадров/сек (1536 spf)
Битовая глубина : 16 бит
Метод сжатия : С потерями
Размер потока : 22,8 Мбайт (2%)
ServiceKind/String : Complete Main



Информация о торренте:
Размер содержимого: 3.2 GB
Скачан: 207 раз
Статус: Проверен
Зарегистрирован на трекере: 2019-05-13 20:29
Скачать торрент


Поддержи раздачу — поставь лайк:
Писать комментарии на нашем торрент-трекере могут только зарегистрированные пользователи.
Зарегистрируйтесь или авторизируйтесь на сайте.