»
»

Скачать музыку Andrew Lloyd Webber – Cats (Vinyl rip 24 bit 96 khz) / [1981, Musical, FLAC] - торрент

Скачать бесплатный торрент музыку.

Статистика раздачи
0 [ 0 b/s ] ↑ 1.8 GB ↓ 0 [ 0 b/s ]
Автор Сообщение
rainbow.n
2019-05-14 17:38
Andrew Lloyd Webber – Cats (Vinyl rip 24 bit 96 khz)
Andrew Lloyd Webber – Cats Формат: FLAC, tracks, lossless
Год выпуска: 1981
Страна: USA
Жанр: Musical
Продолжительность: 01:35:45
Описание:
Треклист
A1. Overture - 2.26
A2. Prologue: Jellicle Songs For Jellicle Cats - 5.13
A3. The Naming Of Cats / The Invitation To The Jellicle Ball - 4.58
A4. The Old Gumbie Cat - 3.40
A5. The Rum Tum Tugger - 3.05
A6. Grizabella - 2.26
A7. Bustopher Jones - 4.24

B1. Mungo Jerrie And Rumpleteazer - 3.50
B2. Old Deuteronomy - 4.52
B3. The Jellicle Ball - 8.50
B4. Grizabella, The Glamour Cat - 3.06
B5. Memory -1.18

C1. The Moments Of Happiness - 3.11
C2. Gus: The Theatre Cat - 6.41
C3. "Growltiger's Last Stand" Including "The Ballad Of Billy McCaw" - 9.40
C4. Skimbleshanks - 4.43

D1. Macavity - 6.59
D2. Mr. Mistoffolees - 3.37
D3. Memory - 5.15
D4. The Journey To The Heaviside Layer - 1.55
D5. The Ad-Dressing Of Cats - 5.12

Доп. информация:
Log
foobar2000 1.1.10 / Dynamic Range Meter 1.1.1
log date: 2019-05-14 15:22:13

--------------------------------------------------------------------------------
Analyzed: ? / ?
--------------------------------------------------------------------------------

DR Peak RMS Duration Track
--------------------------------------------------------------------------------
DR11 -0.26 dB -13.51 dB 2:28 ?-A1. Overture
DR12 -0.26 dB -14.65 dB 5:15 ?-A2. Prologue - Jellicle Songs For Jellicle Cats
DR12 -0.26 dB -16.91 dB 8:40 ?-A3. The Naming Of Cats - The Invitation To The Jellicle Ball; A4. The Old Gumbie Cat
DR11 -0.26 dB -13.19 dB 3:06 ?-A5. The Rum Tum Tugger
DR12 -0.26 dB -16.28 dB 2:25 ?-A6. Grizabella
DR13 -0.26 dB -15.96 dB 4:26 ?-A7. Bustopher Jones
DR14 -0.26 dB -17.05 dB 3:52 ?-B1. Mungo Jerrie And Rumpleteazer
DR12 -0.26 dB -18.51 dB 4:52 ?-B2. Old Deuteronomy
DR12 -0.26 dB -14.85 dB 8:52 ?-B3. The Jellicle Ball
DR13 -0.26 dB -18.72 dB 4:25 ?-B4. Grizabella, The Glamour Cat; B5. Memory
DR12 -0.26 dB -15.84 dB 24:20 ?-C1. The Moments Of Happiness; C2. Gus - The Theatre Cat; C3. 'Growltiger's Last Stand' Including 'The Ballad Of Billy McCaw' ; C4. Skimbleshanks
DR12 -0.26 dB -17.48 dB 6:59 ?-D1. Macavity
DR12 -0.26 dB -14.99 dB 3:38 ?-D2. Mr. Mistoffolees
DR12 -0.26 dB -17.75 dB 5:16 ?-D3. Memory
DR11 -0.26 dB -15.41 dB 7:12 ?-D4. The Journey To The Heaviside Layer; D5. The Ad-Dressing Of Cats
--------------------------------------------------------------------------------

Number of tracks: 15
Official DR value: DR12

Samplerate: 96000 Hz
Channels: 2
Bits per sample: 24
Bitrate: 2661 kbps
Codec: FLAC
================================================================================

Информация о торренте:
Размер содержимого: 1.8 GB
Скачан: 112 раз
Статус: Проверен
Зарегистрирован на трекере: 2019-05-14 16:38
Скачать торрент


Поддержи раздачу — поставь лайк:
Писать комментарии на нашем торрент-трекере могут только зарегистрированные пользователи.
Зарегистрируйтесь или авторизируйтесь на сайте.