»
»

Скачать музыку OST Francis Lai – Love Story (Vinyl rip 24 bit 96 khz) / [1984, Soundtrack, Romantic, Easy Listening, FLAC] - торрент

Нажмите синюю кнопку, чтобы cкачать бесплатно через торрент музыку.

Статистика раздачи
0 [ 0 b/s ] ↑ 600.6 MB ↓ 0 [ 0 b/s ]
Автор Сообщение
rainbow.n
2019-05-14 17:41
OST Francis Lai – Love Story (Vinyl rip 24 bit 96 khz)
OST Francis Lai – Love Story Формат: FLAC, tracks, lossless
Год выпуска: 1984
Страна: USA
Жанр: Soundtrack, Romantic, Easy Listening
Продолжительность: 00:30:14
Описание:

A1. Theme From Love Story – 3.20
A2. Snow Frolic – 2.58
A3. Sonata No. 12 In F Major (Allegro) - 2.17
A4. I Love You, Phil – 2.04
A5. The Christmas Trees - 2.48
A6. Search For Jenny (Theme From Love Story) - 3.04

B1. Bozo Barrett (Theme From Love Story) - 2.43
B2. Skating In Central Park - 3.04
B3. The Long Walk Home - 1.30
B4. Concerto No. 3 In D Major (Allegro) - 2.35
B5. Theme From Love Story (Finale) - 3.52


Доп. информация:
Log
foobar2000 1.1.10 / Dynamic Range Meter 1.1.1
log date: 2019-05-14 14:56:15

--------------------------------------------------------------------------------
Analyzed: ? / ?
--------------------------------------------------------------------------------

DR Peak RMS Duration Track
--------------------------------------------------------------------------------
DR11 -0.26 dB -16.03 dB 3:21 ?-A1. Theme From Love Story
DR10 -0.26 dB -11.54 dB 2:56 ?-A2. Snow Frolic
DR10 -0.26 dB -12.97 dB 2:18 ?-A3. Sonata No. 12 In F Major (Allegro)
DR9 -0.26 dB -10.44 dB 2:05 ?-A4. I Love You, Phil
DR9 -0.26 dB -12.72 dB 2:48 ?-A5. The Christmas Trees
DR10 -0.26 dB -13.43 dB 3:02 ?-A6. Search For Jenny (Theme From Love Story)
DR9 -0.26 dB -10.97 dB 2:44 ?-B1. Bozo Barrett (Theme From Love Story)
DR11 -0.26 dB -14.62 dB 3:03 ?-B2. Skating In Central Park
DR9 -0.26 dB -12.70 dB 1:30 ?-B3. The Long Walk Home
DR10 -0.26 dB -12.06 dB 2:36 ?-B4. Concerto No. 3 In D Major (Allegro)
DR10 -0.26 dB -13.99 dB 3:51 ?-B5. Theme From Love Story (Finale)
--------------------------------------------------------------------------------

Number of tracks: 11
Official DR value: DR10

Samplerate: 96000 Hz
Channels: 2
Bits per sample: 24
Bitrate: 2674 kbps
Codec: FLAC
================================================================================

Информация о торренте:
Размер содержимого: 600.6 MB
Скачан: 131 раз
Статус: Проверен
Зарегистрирован на трекере: 2019-05-14 16:41
Скачать торрент


Поддержи раздачу — поставь лайк:
Писать комментарии на нашем торрент-трекере могут только зарегистрированные пользователи.
Зарегистрируйтесь или авторизируйтесь на сайте.