»
»

Скачать музыку Andrew Lloyd Webber, Tim Rice – Evita (Vinyl rip 24 bit 96 khz) / [1976, Musical, FLAC] - торрент

Скачать через торрент музыку вы можете, нажав на синюю кнопку.

Статистика раздачи
0 [ 0 b/s ] ↑ 2.2 GB ↓ 0 [ 0 b/s ]
Автор Сообщение
rainbow.n
2019-05-15 20:52
Andrew Lloyd Webber, Tim Rice – Evita (Vinyl rip 24 bit 96 khz)
Andrew Lloyd Webber, Tim Rice – Evita Формат: FLAC, tracks, lossless
Год выпуска: 1976
Страна: USA
Жанр: Musical
Продолжительность: 01:55:14
Описание:
Треклист
A1. A Cinema In Bueno Aires, 26 July 1952 - 1.18
A2. Requiem For Evita / Oh What A Circus - 9.12
A3. On This Night Of A Thousand Stars / Eva And Magaldi / Eva Beware Of The City - 7.10
A4. Buenos Aires - 3.43
A5. Goodnight And Thank You - 3.39

B1. The Lady's Got Potential - 4-38
B2. Charity Concert / I'd Be Surprisingly Good For You - 6.10
B3. Another Suitcase In Another Hall - 3.58
B4. Dangerous Jade - 3.39
B5. A New Argentina - 7.08

C1. On The Balcony Of The Casa Rosada / Don't Cry For Me Argentina - 9.10
C2. High Flying, Adored - 4.26
C3. Rainbow High - 2.31
C4. Rainbow Tour - 5.17
C5. The Actress Hasn't Learned The Lines (You'd Like To Hear) - 2.33
C6. And The Money Kept Rolling In (And Out) - 2.34

D1. Santa Evita - 1.55
D2. Waltz For Eva And Che - 3.42
D3. She Is A Diamond - 2.57
D4. Dive Are Rolling / Eva's Sonnet - 6.10
D5. Eva's Final Broadcast - 3.33
D6. Montage - 3.35
D7. Lament - 3.58

Доп. информация:
Log
oobar2000 1.1.10 / Dynamic Range Meter 1.1.1
log date: 2019-05-15 12:35:11

--------------------------------------------------------------------------------
Analyzed: ? / ?
--------------------------------------------------------------------------------

DR Peak RMS Duration Track
--------------------------------------------------------------------------------
DR14 -0.26 dB -17.93 dB 1:19 ?-A1. A Cinema In Bueno Aires, 26 July 1952
DR11 -0.26 dB -14.41 dB 9:06 ?-A2. Requiem For Evita - Oh What A Circus
DR11 -0.26 dB -13.94 dB 10:43 ?-A3. On This Night Of A Thousand Stars - Eva And Magaldi - Eva Beware Of The City; A4. Buenos Aires
DR12 -0.26 dB -14.22 dB 3:36 ?-A5. Goodnight And Thank You
DR10 -0.26 dB -11.93 dB 4:37 ?-B1. The Lady's Got Potential
DR11 -0.26 dB -13.67 dB 6:38 ?-B2. Charity Concert - I'd Be Surprisingly Good For You
DR12 -0.26 dB -14.39 dB 3:21 ?-B3. Another Suitcase In Another Hall
DR12 -0.26 dB -13.51 dB 10:36 ?-B4. Dangerous Jade; B5. A New Argentina
DR11 -0.26 dB -14.81 dB 9:02 ?-C1. On The Balcony Of The Casa Rosada - Don't Cry For Me Argentina
DR12 -0.26 dB -15.28 dB 4:24 ?-C2. High Flying, Adored
DR11 -0.26 dB -12.32 dB 2:30 ?-C3. Rainbow High
DR11 -0.26 dB -13.74 dB 9:57 ?-C3. Rainbow High; C4. Rainbow Tour; C5. The Actress Hasn't Learned The Lines (You'd Like To Hear)
DR11 -0.26 dB -13.60 dB 10:19 ?-C3. Rainbow High; C4. Rainbow Tour; C5. The Actress Hasn't Learned The Lines (You'd Like To Hear); C6. And The Money Kept Rolling In (And Out)
DR11 -0.26 dB -14.70 dB 1:55 ?-D1. Santa Evita
DR11 -0.26 dB -14.40 dB 3:39 ?-D2. Waltz For Eva And Che
DR12 -0.26 dB -14.85 dB 2:54 ?-D3. She Is A Diamond
DR11 -0.26 dB -13.46 dB 9:38 ?-D4. Dive Are Rolling - Eva's Sonnet; D5. Eva's Final Broadcast
DR13 -0.26 dB -16.36 dB 3:33 ?-D5. Eva's Final Broadcast
DR13 -0.26 dB -16.42 dB 3:33 ?-D6. Montage
DR12 -0.26 dB -17.19 dB 3:55 ?-D7. Lament
--------------------------------------------------------------------------------

Number of tracks: 20
Official DR value: DR11

Samplerate: 96000 Hz
Channels: 2
Bits per sample: 24
Bitrate: 2550 kbps
Codec: FLAC
================================================================================

Информация о торренте:
Размер содержимого: 2.2 GB
Скачан: 159 раз
Статус: Проверен
Зарегистрирован на трекере: 2019-05-15 19:52
Скачать торрент


Поддержи раздачу — поставь лайк:
Писать комментарии на нашем торрент-трекере могут только зарегистрированные пользователи.
Зарегистрируйтесь или авторизируйтесь на сайте.