»
»

Скачать Depeche Mode - Live At 6 Music Festival / [2017, Synthpop, DVD5] - торрент

Нажмите на синюю кнопку ниже, чтобы скачать бесплатно через торрент.

Статистика раздачи
0 [ 0 b/s ] ↑ 3.1 GB ↓ 0 [ 0 b/s ]
Автор Сообщение
cobra2000
2019-07-11 21:41
Depeche Mode - Live At 6 Music Festival
Depeche Mode - Live At 6 Music Festival
Формат: DVD5, DVD Video, MPEG2, AC3
Песня: Lve At 6 Music Festival
Жанр: Synthpop
Продолжительность: 01:13:16
Год выпуска: 2017

Видео: 720х576 (PAL 16:9), 25,000 fps, MPEG-2, ~6975 kbps avg, 0.673 bit/pixel
Аудио: 48.0 КГц, Audio Coding 3, 2 ch, 192 kbps

Доп. информация: Основные моменты выступления группы в Глазго, выступление в легендарном бальном зале «Барроуленд» в последнее воскресенье марта. На первом британском шоу они исполнили треки с нового альбома Spirit вместе с некоторыми классическими хитами. В последний раз Дейв Гэхан, Мартин Гор и Энди Флетчер выступали на 2000 концертных площадках в 1984 году во время тура Some Great Reward.

Треклист:
01. Going Backwards
02. So Much Love
03. A Pain That I´m Used To
04. World In My Eyes
05. Home
06. Where´s The Revolution
07. Barrel Of A Gun
08. Walking In My Shoes
09. Personal Jesus
10. Enjoy The Silence


MediaInfo
Общее
Полное имя : D:Tfiledepeche_mode_2017_[tfile.ru]VIDEO_TSVTS_01_1.VOB
Формат : MPEG-PS
Размер файла : 1024 Мбайт
Продолжительность : 19 м. 34 с.
Режим общего битрейта : Переменный
Общий поток : 7313 Кбит/сек

Видео
Идентификатор : 224 (0xE0)
Формат : MPEG Video
Версия формата : Version 2
Профиль формата : Main@Main
Параметр BVOP формата : Да
Параметр матрицы формата : По умолчанию
Параметр GOP формата : M=3, N=13
Продолжительность : 19 м. 34 с.
Вид битрейта : Переменный
Битрейт : 6975 Кбит/сек
Максимальный битрейт : 9008 Кбит/сек
Ширина : 720 пикселей
Высота : 576 пикселей
Соотношение сторон : 16:9
Частота кадров : 25,000 кадров/сек
Стандарт вещания : PAL
Цветовое пространство : YUV
Субдискретизация насыщенности : 4:2:0
Битовая глубина : 8 бит
Тип развёртки : Прогрессивная
Метод сжатия : С потерями
Бит/(Пиксели*Кадры) : 0.673
Временной код первого кадра : 00:00:00:00
Оригинал временного кода : Group of pictures header
GOP, открыто/закрыто : Закрыто
Размер потока : 977 Мбайт (95%)

Аудио
Идентификатор : 189 (0xBD)-128 (0x80)
Формат : AC-3
Формат/Информация : Audio Coding 3
Параметр Endianness формата : Big
Режим смешивания : DVD-Video
Продолжительность : 19 м. 34 с.
Вид битрейта : Постоянный
Битрейт : 192 Кбит/сек
Каналы : 2 канала
Расположение каналов : Front: L R
Частота : 48,0 КГц
Частота кадров : 31,250 кадров/сек (1536 spf)
Битовая глубина : 16 бит
Метод сжатия : С потерями
Размер потока : 26,9 Мбайт (3%)
ServiceKind/String : Complete Main



Информация о торренте:
Размер содержимого: 3.1 GB
Скачан: 179 раз
Статус: Проверен
Зарегистрирован на трекере: 2019-07-11 20:41
Скачать торрент


Поддержи раздачу — поставь лайк:
Писать комментарии на нашем торрент-трекере могут только зарегистрированные пользователи.
Зарегистрируйтесь или авторизируйтесь на сайте.