»
»

Скачать музыку Billy Swan - Billy Swan's Best / [1993, Pop, Country, FLAC] - торрент

Скачать бесплатный торрент музыку.

Статистика раздачи
0 [ 0 b/s ] ↑ 308.3 MB ↓ 0 [ 0 b/s ]
Автор Сообщение
rainbow.n
2019-09-10 19:52
Billy Swan - Billy Swan's Best
Billy Swan - Billy Swan's Best Формат: FLAC, (image + .cue), lossless
Год выпуска: 1993
Страна: USA
Жанр: Pop, Country
Продолжительность: 00:46:46
Описание:

01. I Can Help 4:00
02. Shake, Rattle & Roll 3:07
03. Stranger 3:35
04. Lover Please 2:50
05. Number One 2:35
06. Don't Be Cruel 4:13
07. (You Just) Woman Handled My Mind 3:16
08. Everything's The Same (Ain't Nothing Changed) 2:30
09. I Just Want To Taste Your Wine ( 2:28
10. Vanessa 3:01
11. You're The One 2:12
12. Do I Have To Draw A Picture 2:31
13. I'm Into Lovin' You 2:56
14. Stuck Right In The Middle Of Your Love 2:29
15. With Their Kind Of Money And Our Kind Of Love 2:12
16. Your Picture Still Loves Me (And I Still Love You) 2:29


Доп. информация:
eac
Exact Audio Copy V1.0 beta 6 from 9. April 2015

EAC extraction logfile from 8. September 2019, 10:17

Billy Swan / BIlly Swan's Best

Used drive : ATAPI iHAS122 C Adapter: 1 ID: 0

Read mode : Secure
Utilize accurate stream : Yes
Defeat audio cache : Yes
Make use of C2 pointers : No

Read offset correction : 6
Overread into Lead-In and Lead-Out : No
Fill up missing offset samples with silence : Yes
Delete leading and trailing silent blocks : No
Null samples used in CRC calculations : Yes
Used interface : Native Win32 interface for Win NT & 2000

Used output format : Internal WAV Routines
Sample format : 44.100 Hz; 16 Bit; Stereo

TOC of the extracted CD

Track | Start | Length | Start sector | End sector
---------------------------------------------------------
1 | 0:00.00 | 4:01.63 | 0 | 18137
2 | 4:01.63 | 3:08.00 | 18138 | 32237
3 | 7:09.63 | 3:36.00 | 32238 | 48437
4 | 10:45.63 | 2:51.25 | 48438 | 61287
5 | 13:37.13 | 2:37.25 | 61288 | 73087
6 | 16:14.38 | 4:13.37 | 73088 | 92099
7 | 20:28.00 | 3:17.13 | 92100 | 106887
8 | 23:45.13 | 2:34.55 | 106888 | 118492
9 | 26:19.68 | 2:29.57 | 118493 | 129724
10 | 28:49.50 | 3:01.38 | 129725 | 143337
11 | 31:51.13 | 2:12.25 | 143338 | 153262
12 | 34:03.38 | 2:32.50 | 153263 | 164712
13 | 36:36.13 | 2:58.00 | 164713 | 178062
14 | 39:34.13 | 2:29.50 | 178063 | 189287
15 | 42:03.63 | 2:13.37 | 189288 | 199299
16 | 44:17.25 | 2:29.30 | 199300 | 210504

Range status and errors

Selected range

Filename C:\Users\London\Desktop\Billy Swan - BIlly Swan's Best.wav

Peak level 100.0 %
Extraction speed 8.0 X
Range quality 99.9 %
Test CRC D130BEDB
Copy CRC D130BEDB
Copy OK

No errors occurred

AccurateRip summary

Track 1 accurately ripped (confidence 2) [56905808] (AR v1)
Track 2 accurately ripped (confidence 1) [8450D50A] (AR v2)
Track 3 accurately ripped (confidence 1) [39F604F8] (AR v2)
Track 4 accurately ripped (confidence 1) [DEE41C09] (AR v2)
Track 5 accurately ripped (confidence 1) [3A6E3A0A] (AR v2)
Track 6 accurately ripped (confidence 1) [1EDC31CD] (AR v2)
Track 7 accurately ripped (confidence 1) [5BD2F45D] (AR v2)
Track 8 accurately ripped (confidence 1) [862502A0] (AR v2)
Track 9 accurately ripped (confidence 1) [72EA98B8] (AR v2)
Track 10 accurately ripped (confidence 1) [DDB93929] (AR v2)
Track 11 accurately ripped (confidence 1) [9E4985A4] (AR v2)
Track 12 accurately ripped (confidence 1) [A724E824] (AR v2)
Track 13 accurately ripped (confidence 1) [408BBDC4] (AR v2)
Track 14 accurately ripped (confidence 1) [54FF09AC] (AR v2)
Track 15 accurately ripped (confidence 1) [1A2BE3D4] (AR v2)
Track 16 accurately ripped (confidence 1) [1DDB8547] (AR v2)

All tracks accurately ripped

End of status report

---- CUETools DB Plugin V2.1.6

[CTDB TOCID: OtnHRWEZFcu.Dp3osspsd0sctHA-] found
Submit result: OtnHRWEZFcu.Dp3osspsd0sctHA- has been confirmed
Track | CTDB Status
1 | (1/1) Accurately ripped
2 | (1/1) Accurately ripped
3 | (1/1) Accurately ripped
4 | (1/1) Accurately ripped
5 | (1/1) Accurately ripped
6 | (1/1) Accurately ripped
7 | (1/1) Accurately ripped
8 | (1/1) Accurately ripped
9 | (1/1) Accurately ripped
10 | (1/1) Accurately ripped
11 | (1/1) Accurately ripped
12 | (1/1) Accurately ripped
13 | (1/1) Accurately ripped
14 | (1/1) Accurately ripped
15 | (1/1) Accurately ripped
16 | (1/1) Accurately ripped

==== Log checksum AE8273435BF74A509283E537CE98F1E3CA224DF05BCDA769DD2CD9D605CCD0AE ====

Информация о торренте:
Размер содержимого: 308.3 MB
Скачан: 191 раз
Статус: Проверен
Зарегистрирован на трекере: 2019-09-10 18:52
Скачать торрент


Поддержи раздачу — поставь лайк:
Писать комментарии на нашем торрент-трекере могут только зарегистрированные пользователи.
Зарегистрируйтесь или авторизируйтесь на сайте.