»
»

Скачать музыку Billy Swan - Like Elvis Used To Do / [1999, Rock 'N' Roll, Country, Pop Rock, FLAC] - торрент

Нажмите синюю кнопку, чтобы cкачать бесплатно через торрент музыку.

Статистика раздачи
0 [ 0 b/s ] ↑ 460.6 MB ↓ 0 [ 0 b/s ]
Автор Сообщение
rainbow.n
2019-09-10 19:57
Billy Swan - Like Elvis Used To Do
Billy Swan - Like Elvis Used To Do Формат: FLAC, (image + .cue), lossless
Год выпуска: 1999
Страна: USA
Жанр: Rock 'N' Roll, Country, Pop Rock
Продолжительность: 01:11:03
Описание:
Треклист
01. Mystery Train
02. Milkcow Blues Boogie
03. My Baby Left Me
04. Mean Woman Blues
05. Blue Moon Of Kentucky
06. All Shook Up
07. Heartbreak Hotel
08. Hound Dog
09. Wooden Heart
10. Teddy Bear Medley:
a) (Let Me Be Your) Teddy Bear
b) A Big Hunk O'Love
c) Wear My Ring Around Your Neck
d) I Need Your Love Tonight
e) (Let Me be Your) Teddy Bear (Reprise)
11. I Want You, I Need You, I Love You
12. Viva Las Vegas
13. Suspicious Minds
14. Burning Love
15. Medley:
a) Jailhouse Rock
b) King Creole
16. (You're So Square) Baby, I Don't Care
17. Too Much
18. I Used To Be James Dean
19. When My Blue Moon Turns To Gold Again
20. Love Me Tender
21. Memphis Rocks
22. That's All Right (Mama)
23. Sun Medley:
a) Baby Let's Play House
b) I'm Left, You're Right, She's Gone
c) You're A Heartbreaker
d) Baby Let's Play House (Reprise)

Доп. информация:
eac
Exact Audio Copy V1.0 beta 6 from 9. April 2015

EAC extraction logfile from 8. September 2019, 11:44

Billy Swan / Like Elvis Used To Do

Used drive : ATAPI iHAS122 C Adapter: 1 ID: 0

Read mode : Secure
Utilize accurate stream : Yes
Defeat audio cache : Yes
Make use of C2 pointers : No

Read offset correction : 6
Overread into Lead-In and Lead-Out : No
Fill up missing offset samples with silence : Yes
Delete leading and trailing silent blocks : No
Null samples used in CRC calculations : Yes
Used interface : Native Win32 interface for Win NT & 2000

Used output format : Internal WAV Routines
Sample format : 44.100 Hz; 16 Bit; Stereo

TOC of the extracted CD

Track | Start | Length | Start sector | End sector
---------------------------------------------------------
1 | 0:00.00 | 3:24.11 | 0 | 15310
2 | 3:24.11 | 3:16.05 | 15311 | 30015
3 | 6:40.16 | 2:40.30 | 30016 | 42045
4 | 9:20.46 | 2:57.60 | 42046 | 55380
5 | 12:18.31 | 3:39.17 | 55381 | 71822
6 | 15:57.48 | 2:42.60 | 71823 | 84032
7 | 18:40.33 | 3:10.73 | 84033 | 98355
8 | 21:51.31 | 4:03.67 | 98356 | 116647
9 | 25:55.23 | 2:26.70 | 116648 | 127667
10 | 28:22.18 | 3:04.30 | 127668 | 141497
11 | 31:26.48 | 3:33.13 | 141498 | 157485
12 | 34:59.61 | 2:18.72 | 157486 | 167907
13 | 37:18.58 | 2:46.08 | 167908 | 180365
14 | 40:04.66 | 3:03.70 | 180366 | 194160
15 | 43:08.61 | 3:40.55 | 194161 | 210715
16 | 46:49.41 | 3:18.25 | 210716 | 225590
17 | 50:07.66 | 2:28.17 | 225591 | 236707
18 | 52:36.08 | 2:55.13 | 236708 | 249845
19 | 55:31.21 | 3:13.15 | 249846 | 264335
20 | 58:44.36 | 3:48.37 | 264336 | 281472
21 | 62:32.73 | 2:24.33 | 281473 | 292305
22 | 64:57.31 | 3:20.70 | 292306 | 307375
23 | 68:18.26 | 2:45.37 | 307376 | 319787

Range status and errors

Selected range

Filename C:\Users\London\Desktop\Billy Swan - Like Elvis Used To Do.wav

Peak level 100.0 %
Extraction speed 9.3 X
Range quality 99.9 %
Test CRC 26BD13BE
Copy CRC 26BD13BE
Copy OK

No errors occurred

AccurateRip summary

Track 1 accurately ripped (confidence 1) [59F15517] (AR v1)
Track 2 accurately ripped (confidence 1) [8E27A5A7] (AR v1)
Track 3 accurately ripped (confidence 1) [1F0061DC] (AR v1)
Track 4 accurately ripped (confidence 2) (AR v1)
Track 5 accurately ripped (confidence 1) [6057429F] (AR v1)
Track 6 accurately ripped (confidence 1) (AR v1)
Track 7 accurately ripped (confidence 1) [34800891] (AR v1)
Track 8 accurately ripped (confidence 1) [1BA6CD03] (AR v1)
Track 9 accurately ripped (confidence 1) [CBD7DA4F] (AR v1)
Track 10 accurately ripped (confidence 1) [E7708737] (AR v1)
Track 11 accurately ripped (confidence 1) (AR v1)
Track 12 accurately ripped (confidence 1) (AR v1)
Track 13 accurately ripped (confidence 1) [6416E997] (AR v1)
Track 14 accurately ripped (confidence 1) [BDFD8F0B] (AR v1)
Track 15 accurately ripped (confidence 1) [A24F20B7] (AR v1)
Track 16 accurately ripped (confidence 1) [48DB2C09] (AR v1)
Track 17 accurately ripped (confidence 1) [7F5E11AD] (AR v1)
Track 18 accurately ripped (confidence 1) [C0B9346E] (AR v1)
Track 19 accurately ripped (confidence 1) [A7DF6A1D] (AR v1)
Track 20 accurately ripped (confidence 1) [577F6253] (AR v1)
Track 21 accurately ripped (confidence 1) [748D19B7] (AR v1)
Track 22 accurately ripped (confidence 1) [FA8A2E7C] (AR v1)
Track 23 accurately ripped (confidence 1) [3867DB3A] (AR v1)

All tracks accurately ripped

End of status report

---- CUETools DB Plugin V2.1.6

[CTDB TOCID: Q7l3lKp1CAcbhexx8TFMTdQRyfc-] found
Submit result: Q7l3lKp1CAcbhexx8TFMTdQRyfc- has been confirmed
Track | CTDB Status
1 | (2/2) Accurately ripped
2 | (2/2) Accurately ripped
3 | (2/2) Accurately ripped
4 | (2/2) Accurately ripped
5 | (2/2) Accurately ripped
6 | (2/2) Accurately ripped
7 | (2/2) Accurately ripped
8 | (2/2) Accurately ripped
9 | (2/2) Accurately ripped
10 | (2/2) Accurately ripped
11 | (2/2) Accurately ripped
12 | (2/2) Accurately ripped
13 | (2/2) Accurately ripped
14 | (2/2) Accurately ripped
15 | (2/2) Accurately ripped
16 | (2/2) Accurately ripped
17 | (2/2) Accurately ripped
18 | (2/2) Accurately ripped
19 | (2/2) Accurately ripped
20 | (2/2) Accurately ripped
21 | (2/2) Accurately ripped
22 | (2/2) Accurately ripped
23 | (2/2) Accurately ripped

==== Log checksum 5F52682756977F7BFE3827460BB4792521A1B1CC498A4EC045276C94DD373870 ====

Информация о торренте:
Размер содержимого: 460.6 MB
Скачан: 191 раз
Статус: Проверен
Зарегистрирован на трекере: 2019-09-10 18:57
Скачать торрент


Поддержи раздачу — поставь лайк:
Писать комментарии на нашем торрент-трекере могут только зарегистрированные пользователи.
Зарегистрируйтесь или авторизируйтесь на сайте.