»
»

Скачать музыку Disperse - Foreword / [2017, Melodic Progressive Metal, FLAC] - торрент

Нажмите на синюю кнопку ниже, чтобы скачать музыку бесплатно через торрент.

Статистика раздачи
0 [ 0 b/s ] ↑ 364.6 MB ↓ 0 [ 0 b/s ]
Автор Сообщение
mesch19
2019-09-11 13:52
Disperse - Foreword
Disperse - Foreword Формат: FLAC, (image + .cue), lossless
Год выпуска: 2017
Страна: Poland
Жанр: Melodic Progressive Metal, Progressive Rock
Продолжительность: 00:52:12
Описание:
01. Stay (4:42)
02. Surrender (5:20)
03. Bubbles (3:53)
04. Tomorrow (3:55)
05. Tether (3:41)
06. Sleeping Ivy (6:51)
07. Does It Matter How Far? (9:18 )
08. Foreword (1:31)
09. Neon (3:32)
10. Gabriel (4:46)
11. Kites (4:38 )

Доп. информация:
Отчет ЕАС
Exact Audio Copy V1.3 from 2. September 2016

EAC extraction logfile from 26. June 2019, 19:24

Disperse / Foreword

Used drive : HL-DT-STDVDRAM GH24NSD1 Adapter: 1 ID: 0

Read mode : Secure
Utilize accurate stream : Yes
Defeat audio cache : Yes
Make use of C2 pointers : No

Read offset correction : 6
Overread into Lead-In and Lead-Out : No
Fill up missing offset samples with silence : Yes
Delete leading and trailing silent blocks : No
Null samples used in CRC calculations : Yes
Used interface : Native Win32 interface for Win NT & 2000

Used output format : User Defined Encoder
Selected bitrate : 896 kBit/s
Quality : High
Add ID3 tag : No
Command line compressor : C:Program Files (x86)Exact Audio CopyFlacflac.exe
Additional command line options : -6 -V %source%

TOC of the extracted CD

Track | Start | Length | Start sector | End sector
---------------------------------------------------------
1 | 0:00.00 | 4:42.72 | 0 | 21221
2 | 4:42.72 | 5:20.70 | 21222 | 45291
3 | 10:03.67 | 3:53.44 | 45292 | 62810
4 | 13:57.36 | 3:55.51 | 62811 | 80486
5 | 17:53.12 | 3:41.47 | 80487 | 97108
6 | 21:34.59 | 6:51.04 | 97109 | 127937
7 | 28:25.63 | 9:18.02 | 127938 | 169789
8 | 37:43.65 | 1:31.09 | 169790 | 176623
9 | 39:14.74 | 3:32.15 | 176624 | 192538
10 | 42:47.14 | 4:46.40 | 192539 | 214028
11 | 47:33.54 | 4:38.55 | 214029 | 234933

Range status and errors

Selected range

Filename C:UsersUserMusicEACDisperse - ForewordDisperse - Foreword.wav

Peak level 98.9 %
Extraction speed 1.7 X
Range quality 99.9 %
Test CRC 75BB96CE
Copy CRC 75BB96CE
Copy OK

No errors occurred

AccurateRip summary

Track 1 accurately ripped (confidence 5) [433FB032] (AR v2)
Track 2 accurately ripped (confidence 5) [5F5CB6B6] (AR v2)
Track 3 accurately ripped (confidence 5) [CD1470B2] (AR v2)
Track 4 accurately ripped (confidence 5) [0D230DC0] (AR v2)
Track 5 accurately ripped (confidence 5) [35B38069] (AR v2)
Track 6 accurately ripped (confidence 5) (AR v2)
Track 7 accurately ripped (confidence 5) [F58310FF] (AR v2)
Track 8 accurately ripped (confidence 5) [50D01506] (AR v2)
Track 9 accurately ripped (confidence 5) [4F25E034] (AR v2)
Track 10 accurately ripped (confidence 5) [C51B0FD1] (AR v2)
Track 11 accurately ripped (confidence 4) [68F30906] (AR v2)

All tracks accurately ripped

End of status report

---- CUETools DB Plugin V2.1.6

[CTDB TOCID: UBMpGyr2pDHXgtr3D4un0YqgHu4-] found
Submit result: UBMpGyr2pDHXgtr3D4un0YqgHu4- has been confirmed
Track | CTDB Status
1 | (25/25) Accurately ripped
2 | (25/25) Accurately ripped
3 | (25/25) Accurately ripped
4 | (25/25) Accurately ripped
5 | (25/25) Accurately ripped
6 | (25/25) Accurately ripped
7 | (25/25) Accurately ripped
8 | (25/25) Accurately ripped
9 | (25/25) Accurately ripped
10 | (25/25) Accurately ripped
11 | (25/25) Accurately ripped

==== Log checksum 4C1EEB6451FB199B4D53F137C7DFB030772E6CAAE40DD24AA85AACDE3D54B9DB ====

Информация о торренте:
Размер содержимого: 364.6 MB
Скачан: 144 раза
Статус: Проверен
Зарегистрирован на трекере: 2019-09-11 12:52
Скачать торрент


Поддержи раздачу — поставь лайк:
Писать комментарии на нашем торрент-трекере могут только зарегистрированные пользователи.
Зарегистрируйтесь или авторизируйтесь на сайте.