»
»

Скачать музыку Rick Wakeman - Lure of the Wild / [1994, Prog Rock, Electro, Symphonic Rock, FLAC] - торрент

Скачать бесплатный торрент музыку.

Статистика раздачи
0 [ 0 b/s ] ↑ 337.8 MB ↓ 0 [ 0 b/s ]
Автор Сообщение
rainbow.n
2019-10-09 18:31
Rick Wakeman - Lure of the Wild
Rick Wakeman -  Lure of the Wild Формат: FLAC, (image + .cue), lossless
Год выпуска: 1994
Страна: England
Жанр: Prog Rock, Electro, Symphonic Rock
Продолжительность: 00:54:04
Описание:

01. Lure of the Wild (7:07)
02. The Beach Comber (4:06)
03. Megalomania (3:05)
04. Raga and Rhyme (3:01)
05. Sync or Swim (6:08 )
06. Jiggajig (3:57)
07. Caesarea (9:18 )
08. After the Atom (4:56)
09. The Suicide Shuffle (3:20)
10. Past and Present (3:22)
11. Paint It Black (5:38 )

Доп. информация:
Log
X Lossless Decoder version 20151214 (149.1)

XLD extraction logfile from 2016-05-17 16:37:38 +0300

Rick Wakeman / Lure Of The Wild (9401178)

Used drive : HL-DT-ST DVDRAM GE20NU11 (revision CN01)
Media type : Pressed CD

Ripper mode : XLD Secure Ripper
Disable audio cache : OK for the drive with a cache less than 1375KiB
Make use of C2 pointers : NO
Read offset correction : 667
Max retry count : 20
Gap status : Analyzed, Appended

TOC of the extracted CD
Track | Start | Length | Start sector | End sector
---------------------------------------------------------
1 | 00:00:33 | 07:07:10 | 33 | 32067
2 | 07:07:43 | 04:06:25 | 32068 | 50542
3 | 11:13:68 | 03:05:35 | 50543 | 64452
4 | 14:19:28 | 03:01:60 | 64453 | 78087
5 | 17:21:13 | 06:08:27 | 78088 | 105714
6 | 23:29:40 | 03:57:68 | 105715 | 123557
7 | 27:27:33 | 09:18:00 | 123558 | 165407
8 | 36:45:33 | 04:56:07 | 165408 | 187614
9 | 41:41:40 | 03:20:70 | 187615 | 202684
10 | 45:02:35 | 03:22:48 | 202685 | 217882
11 | 48:25:08 | 05:38:67 | 217883 | 243299

AccurateRip Summary (DiscID: 00167375-00c21080-890cac0b)
Track 01 : OK (v1+v2, confidence 22/22)
Track 02 : OK (v1+v2, confidence 22/22)
Track 03 : OK (v1+v2, confidence 22/22)
Track 04 : OK (v1+v2, confidence 22/22)
Track 05 : OK (v1+v2, confidence 22/22)
Track 06 : OK (v1+v2, confidence 22/22)
Track 07 : OK (v1+v2, confidence 22/22)
Track 08 : OK (v1+v2, confidence 22/22)
Track 09 : OK (v1+v2, confidence 22/22)
Track 10 : OK (v1+v2, confidence 22/22)
Track 11 : OK (v1+v2, confidence 22/22)
->All tracks accurately ripped.

All Tracks
Filename : /OdW/Rick Wakeman/1994 - Lure Of The Wild (9401178)/Rick Wakeman - Lure Of The Wild (9401178).flac
Album gain : -2.63 dB
Peak : 0.972900
CRC32 hash (test run) : DF833E9C
CRC32 hash : DF833E9C
CRC32 hash (skip zero) : 39C448F4
Statistics
Read error : 0
Jitter error (maybe fixed) : 0
Retry sector count : 0
Damaged sector count : 0

Track 01
Pre-gap length : 00:02:33

Track gain : -2.56 dB
Peak : 0.972870
CRC32 hash (test run) : DD382432
CRC32 hash : DD382432
CRC32 hash (skip zero) : C49F4484
AccurateRip v1 signature : CDFC0047
AccurateRip v2 signature : FAA6903D
->Accurately ripped (v1+v2, confidence 8+14/22)
Statistics
Read error : 0
Jitter error (maybe fixed) : 0
Retry sector count : 0
Damaged sector count : 0

Track 02

Track gain : -1.81 dB
Peak : 0.972900
CRC32 hash (test run) : EF99FD65
CRC32 hash : EF99FD65
CRC32 hash (skip zero) : 2F2465F8
AccurateRip v1 signature : FF596BB3
AccurateRip v2 signature : 91B78555
->Accurately ripped (v1+v2, confidence 8+14/22)
Statistics
Read error : 0
Jitter error (maybe fixed) : 0
Retry sector count : 0
Damaged sector count : 0

Track 03

Track gain : -4.46 dB
Peak : 0.972900
CRC32 hash (test run) : 1645E818
CRC32 hash : 1645E818
CRC32 hash (skip zero) : FEAE82B3
AccurateRip v1 signature : 2FA6211B
AccurateRip v2 signature : A94A782F
->Accurately ripped (v1+v2, confidence 8+14/22)
Statistics
Read error : 0
Jitter error (maybe fixed) : 0
Retry sector count : 0
Damaged sector count : 0

Track 04

Track gain : -0.91 dB
Peak : 0.921387
CRC32 hash (test run) : 2B7DEA53
CRC32 hash : 2B7DEA53
CRC32 hash (skip zero) : 2798440F
AccurateRip v1 signature : 9EB50EF6
AccurateRip v2 signature : DF24374F
->Accurately ripped (v1+v2, confidence 8+14/22)
Statistics
Read error : 0
Jitter error (maybe fixed) : 0
Retry sector count : 0
Damaged sector count : 0

Track 05

Track gain : -1.95 dB
Peak : 0.972900
CRC32 hash (test run) : 7FBC9253
CRC32 hash : 7FBC9253
CRC32 hash (skip zero) : BB50169E
AccurateRip v1 signature : 3A57C888
AccurateRip v2 signature : D0CF8859
->Accurately ripped (v1+v2, confidence 8+14/22)
Statistics
Read error : 0
Jitter error (maybe fixed) : 0
Retry sector count : 0
Damaged sector count : 0

Track 06

Track gain : -2.12 dB
Peak : 0.972870
CRC32 hash (test run) : AF1820FD
CRC32 hash : AF1820FD
CRC32 hash (skip zero) : AA78DBAF
AccurateRip v1 signature : 058F3391
AccurateRip v2 signature : 543D421E
->Accurately ripped (v1+v2, confidence 8+14/22)
Statistics
Read error : 0
Jitter error (maybe fixed) : 0
Retry sector count : 0
Damaged sector count : 0

Track 07

Track gain : -2.95 dB
Peak : 0.972900
CRC32 hash (test run) : 8FC259E3
CRC32 hash : 8FC259E3
CRC32 hash (skip zero) : C2730C5E
AccurateRip v1 signature : FBE07E3E
AccurateRip v2 signature : 89EFA6C4
->Accurately ripped (v1+v2, confidence 8+14/22)
Statistics
Read error : 0
Jitter error (maybe fixed) : 0
Retry sector count : 0
Damaged sector count : 0

Track 08

Track gain : -2.67 dB
Peak : 0.972900
CRC32 hash (test run) : 9ED54F6B
CRC32 hash : 9ED54F6B
CRC32 hash (skip zero) : FF4382A0
AccurateRip v1 signature : B3009D35
AccurateRip v2 signature : 5D03DE20
->Accurately ripped (v1+v2, confidence 8+14/22)
Statistics
Read error : 0
Jitter error (maybe fixed) : 0
Retry sector count : 0
Damaged sector count : 0

Track 09

Track gain : -0.54 dB
Peak : 0.956146
CRC32 hash (test run) : 8F17EDA1
CRC32 hash : 8F17EDA1
CRC32 hash (skip zero) : 2B3C9C88
AccurateRip v1 signature : 630552E5
AccurateRip v2 signature : 1DDB6B8B
->Accurately ripped (v1+v2, confidence 8+14/22)
Statistics
Read error : 0
Jitter error (maybe fixed) : 0
Retry sector count : 0
Damaged sector count : 0

Track 10

Track gain : -1.61 dB
Peak : 0.935364
CRC32 hash (test run) : 9B9F5550
CRC32 hash : 9B9F5550
CRC32 hash (skip zero) : 19912597
AccurateRip v1 signature : 431539DC
AccurateRip v2 signature : 0F0CAA55
->Accurately ripped (v1+v2, confidence 8+14/22)
Statistics
Read error : 0
Jitter error (maybe fixed) : 0
Retry sector count : 0
Damaged sector count : 0

Track 11

Track gain : -2.93 dB
Peak : 0.972900
CRC32 hash (test run) : DBC313B2
CRC32 hash : DBC313B2
CRC32 hash (skip zero) : E5FD51E7
AccurateRip v1 signature : CF8F745E
AccurateRip v2 signature : F107CE54
->Accurately ripped (v1+v2, confidence 8+14/22)
Statistics
Read error : 0
Jitter error (maybe fixed) : 0
Retry sector count : 0
Damaged sector count : 0

No errors occurred

End of status report

-----BEGIN XLD SIGNATURE-----
mmqlwL5yvBVfxB3sihG0N_QFJV31RM.NLDu.2T4lzRoj2zg2fUiin06VpWJlrhN0sGugJGy5qg1hQ6FxPHYG7cwjs32JMkFI8Ssqcq4
-----END XLD SIGNATURE-----
[свернуть]

Информация о торренте:
Размер содержимого: 337.8 MB
Скачан: 159 раз
Статус: Проверен
Зарегистрирован на трекере: 2019-10-09 17:31
Скачать торрент


Поддержи раздачу — поставь лайк:
Писать комментарии на нашем торрент-трекере могут только зарегистрированные пользователи.
Зарегистрируйтесь или авторизируйтесь на сайте.