»
»

Скачать музыку Rick Wakeman - Prayers / [1993, Prog Rock related, Religious, Christian Rock, FLAC] - торрент

Нажмите синюю кнопку, чтобы cкачать бесплатно через торрент музыку.

Статистика раздачи
0 [ 0 b/s ] ↑ 345.8 MB ↓ 0 [ 0 b/s ]
Автор Сообщение
rainbow.n
2019-10-09 18:37
Rick Wakeman - Prayers
Rick Wakeman - Prayers Формат: FLAC, (image + .cue), lossless
Год выпуска: 1993
Страна: England
Жанр: Prog Rock related, Religious, Christian Rock
Продолжительность: 00:59:37
Описание:

01. A Wish
02. Hymn of Hope
03. A Prayer For Creation
04. A Cry Without Tears
05. A Prayer For All
06. The Answer
07. The Empty Vessel
08. Silent Prayer
09. Devotion
10. The Lord's Prayer
11. Prayers of the Prophets
12. Stay With Me
13. The Only God
14. I Can Hear You
15. Evening Prayer
16. A Final Wish

Доп. информация:
Log
X Lossless Decoder version 20151214 (149.1)

XLD extraction logfile from 2016-03-24 15:16:27 +0300

Rick Wakeman / Prayers (MYRCD 1296)

Used drive : HL-DT-ST DVDRAM GE20NU11 (revision CN01)
Media type : Pressed CD

Ripper mode : XLD Secure Ripper
Disable audio cache : OK for the drive with a cache less than 1375KiB
Make use of C2 pointers : NO
Read offset correction : 667
Max retry count : 20
Gap status : Analyzed, Appended

TOC of the extracted CD
Track | Start | Length | Start sector | End sector
---------------------------------------------------------
1 | 00:00:72 | 01:23:68 | 72 | 6364
2 | 01:24:65 | 03:24:15 | 6365 | 21679
3 | 04:49:05 | 02:10:17 | 21680 | 31446
4 | 06:59:22 | 06:07:08 | 31447 | 58979
5 | 13:06:30 | 01:54:25 | 58980 | 67554
6 | 15:00:55 | 04:44:00 | 67555 | 88854
7 | 19:44:55 | 02:01:20 | 88855 | 97949
8 | 21:46:00 | 04:43:02 | 97950 | 119176
9 | 26:29:02 | 03:12:05 | 119177 | 133581
10 | 29:41:07 | 03:42:10 | 133582 | 150241
11 | 33:23:17 | 03:07:45 | 150242 | 164311
12 | 36:30:62 | 06:51:33 | 164312 | 195169
13 | 43:22:20 | 03:39:30 | 195170 | 211624
14 | 47:01:50 | 09:18:10 | 211625 | 253484
15 | 56:19:60 | 01:42:40 | 253485 | 261174
16 | 58:02:25 | 01:35:47 | 261175 | 268346

AccurateRip Summary (DiscID: 00208063-01929b2e-d60df910)
Track 01 : OK (v2, confidence 2/2)
Track 02 : OK (v2, confidence 2/2)
Track 03 : OK (v2, confidence 2/2)
Track 04 : OK (v2, confidence 2/2)
Track 05 : OK (v2, confidence 2/2)
Track 06 : OK (v2, confidence 2/2)
Track 07 : OK (v2, confidence 2/2)
Track 08 : OK (v2, confidence 2/2)
Track 09 : OK (v2, confidence 2/2)
Track 10 : OK (v2, confidence 2/2)
Track 11 : OK (v2, confidence 2/2)
Track 12 : OK (v2, confidence 2/2)
Track 13 : OK (v2, confidence 2/2)
Track 14 : OK (v2, confidence 2/2)
Track 15 : OK (v2, confidence 2/2)
Track 16 : OK (v2, confidence 2/2)
->All tracks accurately ripped.

All Tracks
Filename : /OdW/Rick Wakeman/1993 - Prayers (MYRCD 1296)/Rick Wakeman - Prayers (MYRCD 1296).flac
Album gain : 0.44 dB
Peak : 0.754578
CRC32 hash (test run) : 6E034C4F
CRC32 hash : 6E034C4F
CRC32 hash (skip zero) : A662AC39
Statistics
Read error : 0
Jitter error (maybe fixed) : 0
Retry sector count : 0
Damaged sector count : 0

Track 01
Pre-gap length : 00:02:72

Track gain : 2.66 dB
Peak : 0.512604
CRC32 hash (test run) : 33690FDA
CRC32 hash : 33690FDA
CRC32 hash (skip zero) : E608F455
AccurateRip v1 signature : 9876AFCE
AccurateRip v2 signature : 82F60AEF
->Accurately ripped (v2, confidence 2/2)
Statistics
Read error : 0
Jitter error (maybe fixed) : 0
Retry sector count : 0
Damaged sector count : 0

Track 02
Pre-gap length : 00:02:00

Track gain : 0.29 dB
Peak : 0.709320
CRC32 hash (test run) : FBC66108
CRC32 hash : FBC66108
CRC32 hash (skip zero) : E57C20FD
AccurateRip v1 signature : 347C1B3A
AccurateRip v2 signature : B77D1739
->Accurately ripped (v2, confidence 2/2)
Statistics
Read error : 0
Jitter error (maybe fixed) : 0
Retry sector count : 0
Damaged sector count : 0

Track 03
Pre-gap length : 00:03:00

Track gain : 4.31 dB
Peak : 0.527344
CRC32 hash (test run) : 1FD44029
CRC32 hash : 1FD44029
CRC32 hash (skip zero) : 1E597CA5
AccurateRip v1 signature : 3DF135CD
AccurateRip v2 signature : 3364DFD0
->Accurately ripped (v2, confidence 2/2)
Statistics
Read error : 0
Jitter error (maybe fixed) : 0
Retry sector count : 0
Damaged sector count : 0

Track 04
Pre-gap length : 00:02:00

Track gain : -0.71 dB
Peak : 0.744293
CRC32 hash (test run) : 8C22A4AC
CRC32 hash : 8C22A4AC
CRC32 hash (skip zero) : 808BCC43
AccurateRip v1 signature : 7E61D67A
AccurateRip v2 signature : A910FFEA
->Accurately ripped (v2, confidence 2/2)
Statistics
Read error : 0
Jitter error (maybe fixed) : 0
Retry sector count : 0
Damaged sector count : 0

Track 05
Pre-gap length : 00:01:00

Track gain : 1.94 dB
Peak : 0.598755
CRC32 hash (test run) : 5F3C0DA0
CRC32 hash : 5F3C0DA0
CRC32 hash (skip zero) : B800CCE9
AccurateRip v1 signature : 4DF5827B
AccurateRip v2 signature : AAE1AD52
->Accurately ripped (v2, confidence 2/2)
Statistics
Read error : 0
Jitter error (maybe fixed) : 0
Retry sector count : 0
Damaged sector count : 0

Track 06
Pre-gap length : 00:02:00

Track gain : -0.07 dB
Peak : 0.754578
CRC32 hash (test run) : EE43BA5F
CRC32 hash : EE43BA5F
CRC32 hash (skip zero) : C7DAF9C5
AccurateRip v1 signature : D4D174D7
AccurateRip v2 signature : 92584B67
->Accurately ripped (v2, confidence 2/2)
Statistics
Read error : 0
Jitter error (maybe fixed) : 0
Retry sector count : 0
Damaged sector count : 0

Track 07
Pre-gap length : 00:02:00

Track gain : 1.68 dB
Peak : 0.560791
CRC32 hash (test run) : 068B81A3
CRC32 hash : 068B81A3
CRC32 hash (skip zero) : DFCA94AF
AccurateRip v1 signature : 00DF81E0
AccurateRip v2 signature : 261D260F
->Accurately ripped (v2, confidence 2/2)
Statistics
Read error : 0
Jitter error (maybe fixed) : 0
Retry sector count : 0
Damaged sector count : 0

Track 08
Pre-gap length : 00:03:00

Track gain : 7.06 dB
Peak : 0.562805
CRC32 hash (test run) : D716CDD3
CRC32 hash : D716CDD3
CRC32 hash (skip zero) : 28EEB97E
AccurateRip v1 signature : 81043941
AccurateRip v2 signature : 50615D32
->Accurately ripped (v2, confidence 2/2)
Statistics
Read error : 0
Jitter error (maybe fixed) : 0
Retry sector count : 0
Damaged sector count : 0

Track 09
Pre-gap length : 00:03:00

Track gain : 3.17 dB
Peak : 0.506989
CRC32 hash (test run) : B8245F0F
CRC32 hash : B8245F0F
CRC32 hash (skip zero) : AC08C7E6
AccurateRip v1 signature : 198B0983
AccurateRip v2 signature : DDFA069D
->Accurately ripped (v2, confidence 2/2)
Statistics
Read error : 0
Jitter error (maybe fixed) : 0
Retry sector count : 0
Damaged sector count : 0

Track 10
Pre-gap length : 00:04:00

Track gain : 1.49 dB
Peak : 0.469299
CRC32 hash (test run) : AB8D3712
CRC32 hash : AB8D3712
CRC32 hash (skip zero) : F9DA780C
AccurateRip v1 signature : 6DC4AF97
AccurateRip v2 signature : 2B700F8E
->Accurately ripped (v2, confidence 2/2)
Statistics
Read error : 0
Jitter error (maybe fixed) : 0
Retry sector count : 0
Damaged sector count : 0

Track 11
Pre-gap length : 00:02:00

Track gain : 2.04 dB
Peak : 0.547791
CRC32 hash (test run) : 5705D942
CRC32 hash : 5705D942
CRC32 hash (skip zero) : 579F9D65
AccurateRip v1 signature : 6638B6C0
AccurateRip v2 signature : 6C8488BD
->Accurately ripped (v2, confidence 2/2)
Statistics
Read error : 0
Jitter error (maybe fixed) : 0
Retry sector count : 0
Damaged sector count : 0

Track 12
Pre-gap length : 00:03:00

Track gain : 0.17 dB
Peak : 0.612000
CRC32 hash (test run) : AF3EE8BA
CRC32 hash : AF3EE8BA
CRC32 hash (skip zero) : 4C4D2958
AccurateRip v1 signature : 71B02547
AccurateRip v2 signature : 17D93E1E
->Accurately ripped (v2, confidence 2/2)
Statistics
Read error : 0
Jitter error (maybe fixed) : 0
Retry sector count : 0
Damaged sector count : 0

Track 13
Pre-gap length : 00:03:00

Track gain : 2.38 dB
Peak : 0.473389
CRC32 hash (test run) : 2CF50E16
CRC32 hash : 2CF50E16
CRC32 hash (skip zero) : 881788E8
AccurateRip v1 signature : 3D2E60FF
AccurateRip v2 signature : C7977AD0
->Accurately ripped (v2, confidence 2/2)
Statistics
Read error : 0
Jitter error (maybe fixed) : 0
Retry sector count : 0
Damaged sector count : 0

Track 14
Pre-gap length : 00:03:00

Track gain : -0.50 dB
Peak : 0.753510
CRC32 hash (test run) : 599D7460
CRC32 hash : 599D7460
CRC32 hash (skip zero) : 5F12C440
AccurateRip v1 signature : 844933C4
AccurateRip v2 signature : A05A15B1
->Accurately ripped (v2, confidence 2/2)
Statistics
Read error : 0
Jitter error (maybe fixed) : 0
Retry sector count : 0
Damaged sector count : 0

Track 15
Pre-gap length : 00:02:00

Track gain : 2.23 dB
Peak : 0.499969
CRC32 hash (test run) : 6F8DEC5C
CRC32 hash : 6F8DEC5C
CRC32 hash (skip zero) : 77A97E21
AccurateRip v1 signature : C416181E
AccurateRip v2 signature : 0F6AB71A
->Accurately ripped (v2, confidence 2/2)
Statistics
Read error : 0
Jitter error (maybe fixed) : 0
Retry sector count : 0
Damaged sector count : 0

Track 16
Pre-gap length : 00:02:00

Track gain : 1.36 dB
Peak : 0.521240
CRC32 hash (test run) : FDD58E29
CRC32 hash : FDD58E29
CRC32 hash (skip zero) : 5F47F437
AccurateRip v1 signature : 1D2F4393
AccurateRip v2 signature : 0F26A0D5
->Accurately ripped (v2, confidence 2/2)
Statistics
Read error : 0
Jitter error (maybe fixed) : 0
Retry sector count : 0
Damaged sector count : 0

No errors occurred

End of status report

-----BEGIN XLD SIGNATURE-----
KCfI_3l3R7xis21EEAtxss19iaCryoVTWZP3CWmPmTl1T1tyczb_TABiuDhtOJOcDPyPyaF3bKCyhQGXFB9.USskX5eMOH2.szfMFuy
-----END XLD SIGNATURE-----

Информация о торренте:
Размер содержимого: 345.8 MB
Скачан: 170 раз
Статус: Проверен
Зарегистрирован на трекере: 2019-10-09 17:37
Скачать торрент


Поддержи раздачу — поставь лайк:
Писать комментарии на нашем торрент-трекере могут только зарегистрированные пользователи.
Зарегистрируйтесь или авторизируйтесь на сайте.