»
»

Скачать Наутилус Помпилиус - Концерт в Тюмени / [1987, Rock, DVD5] - торрент

Нажмите на синюю кнопку ниже, чтобы скачать бесплатно через торрент.

Статистика раздачи
0 [ 0 b/s ] ↑ 4.1 GB ↓ 0 [ 0 b/s ]
Автор Сообщение
cobra2000
2019-11-18 22:39
Наутилус Помпилиус - Концерт в Тюмени
Наутилус Помпилиус - Концерт в Тюмени  Формат: DVD5, DVD Video, MPEG2, AC3
Песня: Концерт в Тюмени
Жанр: Rock
Продолжительность: 01:13:10
Год выпуска: 1987

Видео: 720х576 (PAL 5:4), 25,000 fps, MPEG-2, 7856 kbps avg, 0.758 bit/pixel
Аудио: 48.0 КГц, Audio Coding 3, 2 ch, 256 kbps

Доп. информация: Nautilus Pompilius («Наутилус Помпилиус») — советская и российская рок-группа, одна из известных во второй половине 1980-х и в середине 1990-х годов. Основана в Свердловске в 1982 году студентами Свердловского архитектурного института Вячеславом Бутусовым и Дмитрием Умецким. Дебютный альбом «Переезд» был записан в 1983 году. Состав коллектива неоднократно менялся. Изменениям подвергался также и музыкальный стиль группы. Подарок всем поклонникам НАУ! Ранее неизвестный концерт,прошедший в Тюменской филармонии, летом 1987.Профессиональная съемка. Качество(учитывая давность пленки) очень не плохое. Этот концерт сохранил для нас Борис Шпильковский,к сожалению ныне покойный.
P.S. Этот концерт был у меня много-много лет тому назад на аудио кассете, в видео варианте увидел в первый раз. Выражаю благодарность РокОбоз за предоставленный материал.

Треклист:
1.Разлука
2.Мальчик Зима
3.Князь тишины
4.Отход на север
5.Казанова
6.Наша семья
7.Взгляд с экрана
8.Стриптиз
9.Эта музыка будет вечной
10.Песня в защиту женщин
11.Доктор твоего тела
12.Падал теплый снег
13.Я хочу быть с тобой
14.Шар цвета хаки
15.Скованные одной цепью
16.Последнее письмо
17.Синоптики
18.Все кто нес

MeaiaInfo
Общее
Полное имя : D:\Tfile\vv\Volume 1\VIDEO_TS\VTS_01_1.VOB
Формат : MPEG-PS
Размер файла : 1024 Мбайт
Продолжительность : 17 м. 17 с.
Режим общего битрейта : Постоянный
Общий поток : 8277 Кбит/сек

Видео
Идентификатор : 224 (0xE0)
Формат : MPEG Video
Версия формата : Version 2
Профиль формата : Main@High
Параметр BVOP формата : Нет
Параметр матрицы формата : По умолчанию
Параметр GOP формата : N=15
Продолжительность : 17 м. 17 с.
Вид битрейта : Постоянный
Битрейт : 7856 Кбит/сек
Максимальный битрейт : 8000 Кбит/сек
Ширина : 720 пикселей
Высота : 576 пикселей
Соотношение сторон : 5:4
Частота кадров : 25,000 кадров/сек
Стандарт вещания : PAL
Цветовое пространство : YUV
Субдискретизация насыщенности : 4:2:0
Битовая глубина : 8 бит
Тип развёртки : Прогрессивная
Метод сжатия : С потерями
Бит/(Пиксели*Кадры) : 0.758
Временной код первого кадра : 00:00:00:00
Оригинал временного кода : Group of pictures header
GOP, открыто/закрыто : Закрыто
Размер потока : 972 Мбайт (95%)
Основные цвета : BT.601 PAL
Характеристики трансфера : BT.470 System B, BT.470 System G
Коэффициенты матрицы : BT.601

Аудио
Идентификатор : 189 (0xBD)-128 (0x80)
Формат : AC-3
Формат/Информация : Audio Coding 3
Параметр Endianness формата : Big
Режим смешивания : DVD-Video
Продолжительность : 17 м. 17 с.
Вид битрейта : Постоянный
Битрейт : 256 Кбит/сек
Каналы : 2 канала
Расположение каналов : Front: L R
Частота : 48,0 КГц
Частота кадров : 31,250 кадров/сек (1536 spf)
Битовая глубина : 16 бит
Метод сжатия : С потерями
Задержка видео : -8 мс.
Размер потока : 31,7 Мбайт (3%)
ServiceKind/String : Complete Main



Информация о торренте:
Размер содержимого: 4.1 GB
Скачан: 170 раз
Статус: Проверен
Зарегистрирован на трекере: 2019-11-18 21:39
Скачать торрент


Поддержи раздачу — поставь лайк:
Astarot999
2019-11-18 21:56
Спасибо! Забираю в коллекцию.
altu05
2019-11-19 00:29
Спасибо!!!! Такая вкусняшка!!! Золотой состав, золотые песни
Писать комментарии на нашем торрент-трекере могут только зарегистрированные пользователи.
Зарегистрируйтесь или авторизируйтесь на сайте.