»
»

Скачать музыку Bonnie Tyler - Simply Believe / [2004, Rock, Pop, Pop Rock, FLAC] - торрент

Нажмите на синюю кнопку ниже, чтобы скачать музыку бесплатно через торрент.

Статистика раздачи
0 [ 0 b/s ] ↑ 498.6 MB ↓ 0 [ 0 b/s ]
Автор Сообщение
rainbow.n
2020-01-16 10:52
Bonnie Tyler - Simply Believe
Bonnie Tyler - Simply Believe Формат: FLAC, (image + .cue), lossless
Год выпуска: 2004
Страна: England
Жанр: Rock, Pop, Pop Rock
Продолжительность: 01:02:50
Описание:

01. Si demain... (Turn Around) (with Kareen Antonn)
02. Simply Believe
03. Si tout s'arrête (It's a Heartache) (with Kareen Antonn)
04. Holding out for a Hero (2004 version)
05. Back In My Arms
06. Open Your Eyes
07. Here She Comes (2004 version)
08. Nobody Better
09. If You Were a Woman and I Was a Man
10. When I Close My Eyes
11. It's In The Back of My Mind
12. I Want You
13. Darlin
14. All Night to Know You (2004 version)
15. Driving Me Wild (2004 version)

Доп. информация:
Log
Exact Audio Copy V1.3 from 2. September 2016

EAC extraction logfile from 4. January 2020, 14:48

Bonnie Tyler / Simply Believe

Used drive : ASUS DRW-24D5MT Adapter: 1 ID: 0

Read mode : Secure
Utilize accurate stream : Yes
Defeat audio cache : Yes
Make use of C2 pointers : No

Read offset correction : 6
Overread into Lead-In and Lead-Out : No
Fill up missing offset samples with silence : Yes
Delete leading and trailing silent blocks : No
Null samples used in CRC calculations : Yes
Used interface : Native Win32 interface for Win NT & 2000

Used output format : User Defined Encoder
Selected bitrate : 128 kBit/s
Quality : High
Add ID3 tag : No
Command line compressor : C:\Program Files (x86)\Exact Audio Copy\FLAC\FLAC.EXE
Additional command line options : -V -8 -T "Date=%year%" -T "Genre=%genre%" %source%

TOC of the extracted CD

Track | Start | Length | Start sector | End sector
---------------------------------------------------------
1 | 0:00.00 | 3:53.24 | 0 | 17498
2 | 3:53.24 | 4:40.57 | 17499 | 38555
3 | 8:34.06 | 3:28.25 | 38556 | 54180
4 | 12:02.31 | 3:55.56 | 54181 | 71861
5 | 15:58.12 | 4:29.45 | 71862 | 92081
6 | 20:27.57 | 4:20.47 | 92082 | 111628
7 | 24:48.29 | 3:18.51 | 111629 | 126529
8 | 28:07.05 | 4:08.38 | 126530 | 145167
9 | 32:15.43 | 4:01.56 | 145168 | 163298
10 | 36:17.24 | 4:27.53 | 163299 | 183376
11 | 40:45.02 | 4:46.08 | 183377 | 204834
12 | 45:31.10 | 3:59.07 | 204835 | 222766
13 | 49:30.17 | 3:23.71 | 222767 | 238062
14 | 52:54.13 | 5:22.34 | 238063 | 262246
15 | 58:16.47 | 4:33.54 | 262247 | 282775

Range status and errors

Selected range

Filename F:\ЕАС\rwa12\Bonnie Tyler - Simply Believe.wav

Peak level 100.0 %
Extraction speed 3.2 X
Range quality 100.0 %
Test CRC 9E1B16E6
Copy CRC 9E1B16E6
Copy OK

No errors occurred

AccurateRip summary

Track 1 cannot be verified as accurate (confidence 1) , AccurateRip returned [6C9A19FD] (AR v2)
Track 2 cannot be verified as accurate (confidence 1) [5119690D], AccurateRip returned [6926A073] (AR v2)
Track 3 cannot be verified as accurate (confidence 1) , AccurateRip returned [EC783B99] (AR v2)
Track 4 cannot be verified as accurate (confidence 1) [4500BB28], AccurateRip returned [8A1AAF44] (AR v2)
Track 5 cannot be verified as accurate (confidence 1) [C2E2148E], AccurateRip returned [2A4976A6] (AR v2)
Track 6 cannot be verified as accurate (confidence 1) [F996221D], AccurateRip returned [E5F7ADAF] (AR v2)
Track 7 cannot be verified as accurate (confidence 1) [C24816F3], AccurateRip returned [4E838549] (AR v2)
Track 8 cannot be verified as accurate (confidence 1) [CE5A78EA], AccurateRip returned [1D26514D] (AR v2)
Track 9 cannot be verified as accurate (confidence 1) [368498D3], AccurateRip returned [75C438C0] (AR v2)
Track 10 cannot be verified as accurate (confidence 1) [38608865], AccurateRip returned [3FCBEF5C] (AR v2)
Track 11 cannot be verified as accurate (confidence 1) [D59762F3], AccurateRip returned [55B9AD02] (AR v2)
Track 12 cannot be verified as accurate (confidence 1) [F5687C5C], AccurateRip returned [82C8CA8B] (AR v2)
Track 13 cannot be verified as accurate (confidence 1) [D6DD0994], AccurateRip returned [5E31B1CF] (AR v2)
Track 14 cannot be verified as accurate (confidence 1) [61CB552F], AccurateRip returned [13326FFD] (AR v2)
Track 15 cannot be verified as accurate (confidence 1) [E30A96BB], AccurateRip returned [A19CBFA2] (AR v2)

No tracks could be verified as accurate
You may have a different pressing from the one(s) in the database

End of status report

---- CUETools DB Plugin V2.1.6

[CTDB TOCID: h4IMOqiuINSbdXnOIQcx4MFic_0-] disk not present in database
Submit result: h4IMOqiuINSbdXnOIQcx4MFic_0- has been uploaded

==== Log checksum 7700348309786BEA01A4ED6D992D2DE97B0ACD298FD6C645CB7D17657CFABFA9 ====

Информация о торренте:
Размер содержимого: 498.6 MB
Скачан: 224 раза
Статус: Проверен
Зарегистрирован на трекере: 2020-01-16 09:52
Скачать торрент


Поддержи раздачу — поставь лайк:
Писать комментарии на нашем торрент-трекере могут только зарегистрированные пользователи.
Зарегистрируйтесь или авторизируйтесь на сайте.