»
»

Скачать музыку Bonnie Tyler - Wings / [2005, Pop, Rock, FLAC] - торрент

Скачать через торрент музыку вы можете, нажав на синюю кнопку.

Статистика раздачи
0 [ 0 b/s ] ↑ 483.4 MB ↓ 0 [ 0 b/s ]
Автор Сообщение
rainbow.n
2020-01-16 10:55
Bonnie Tyler - Wings
Bonnie Tyler - Wings Формат: FLAC, (image + .cue), lossless
Год выпуска: 2005
Страна: England
Жанр: Pop, Rock
Продолжительность: 00:58:01
Описание:

01. Louise (Original Vers)
02. Celebrate
03. Driving Me Crazy
04. Hold Out Your Heart
05. Run Run Run
06. Wings
07. It's A Heartache (New Version)
08. Stand Up
09. Crying In Berlin
10. Total Eclipse Of The Heart (New Version)
11. I'll Stand By You (with Lorraine Crosby)
12. All I Need Is Love
13. I Wont Look Back
14. Streets Of Stone
15. Chante Avec Moi
16. Louise (Il Est Mon Homme)


Доп. информация:
Log
Exact Audio Copy V1.3 from 2. September 2016

EAC extraction logfile from 4. January 2020, 15:26

Bonnie Tyler / Wings

Used drive : ASUS DRW-24D5MT Adapter: 1 ID: 0

Read mode : Secure
Utilize accurate stream : Yes
Defeat audio cache : Yes
Make use of C2 pointers : No

Read offset correction : 6
Overread into Lead-In and Lead-Out : No
Fill up missing offset samples with silence : Yes
Delete leading and trailing silent blocks : No
Null samples used in CRC calculations : Yes
Used interface : Native Win32 interface for Win NT & 2000

Used output format : User Defined Encoder
Selected bitrate : 128 kBit/s
Quality : High
Add ID3 tag : No
Command line compressor : C:\Program Files (x86)\Exact Audio Copy\FLAC\FLAC.EXE
Additional command line options : -V -8 -T "Date=%year%" -T "Genre=%genre%" %source%

TOC of the extracted CD

Track | Start | Length | Start sector | End sector
---------------------------------------------------------
1 | 0:00.00 | 3:40.42 | 0 | 16541
2 | 3:40.42 | 2:56.18 | 16542 | 29759
3 | 6:36.60 | 3:08.63 | 29760 | 43922
4 | 9:45.48 | 3:45.04 | 43923 | 60801
5 | 13:30.52 | 3:28.73 | 60802 | 76474
6 | 16:59.50 | 4:06.20 | 76475 | 94944
7 | 21:05.70 | 3:18.61 | 94945 | 109855
8 | 24:24.56 | 3:31.50 | 109856 | 125730
9 | 27:56.31 | 3:33.69 | 125731 | 141774
10 | 31:30.25 | 3:50.52 | 141775 | 159076
11 | 35:21.02 | 4:15.52 | 159077 | 178253
12 | 39:36.54 | 4:44.43 | 178254 | 199596
13 | 44:21.22 | 3:36.05 | 199597 | 215801
14 | 47:57.27 | 3:31.13 | 215802 | 231639
15 | 51:28.40 | 2:55.44 | 231640 | 244808
16 | 54:24.09 | 3:37.07 | 244809 | 261090

Range status and errors

Selected range

Filename F:\ЕАС\rwa12\Bonnie Tyler - Wings.wav

Peak level 100.0 %
Extraction speed 7.0 X
Range quality 100.0 %
Test CRC C8FBD6B1
Copy CRC C8FBD6B1
Copy OK

No errors occurred

AccurateRip summary

Track 1 accurately ripped (confidence 19) [F37FE469] (AR v2)
Track 2 accurately ripped (confidence 18) [6543A007] (AR v2)
Track 3 accurately ripped (confidence 18) [28B5AE0E] (AR v2)
Track 4 accurately ripped (confidence 18) [990D5C41] (AR v2)
Track 5 accurately ripped (confidence 18) [EAF109C2] (AR v2)
Track 6 accurately ripped (confidence 18) [ABAC7A92] (AR v2)
Track 7 accurately ripped (confidence 19) [1767DB35] (AR v2)
Track 8 accurately ripped (confidence 18) [F6D3623B] (AR v2)
Track 9 accurately ripped (confidence 18) [339B1AC8] (AR v2)
Track 10 accurately ripped (confidence 19) [68279684] (AR v2)
Track 11 accurately ripped (confidence 18) [AE7E4D1F] (AR v2)
Track 12 accurately ripped (confidence 19) [F12449AD] (AR v2)
Track 13 accurately ripped (confidence 18) [A3B0F00F] (AR v2)
Track 14 accurately ripped (confidence 18) [97B6F672] (AR v2)
Track 15 accurately ripped (confidence 18) [135695AC] (AR v2)
Track 16 accurately ripped (confidence 18) [E43E87DA] (AR v2)

All tracks accurately ripped

End of status report

---- CUETools DB Plugin V2.1.6

[CTDB TOCID: 3qfHgoBhT66j5Bp.z5zcNsddyAA-] found
Submit result: 3qfHgoBhT66j5Bp.z5zcNsddyAA- has been confirmed
Track | CTDB Status
1 | (19/24) Accurately ripped
2 | (19/24) Accurately ripped
3 | (19/24) Accurately ripped
4 | (19/24) Accurately ripped
5 | (19/24) Accurately ripped
6 | (19/24) Accurately ripped
7 | (19/24) Accurately ripped
8 | (19/24) Accurately ripped
9 | (19/24) Accurately ripped
10 | (19/24) Accurately ripped
11 | (19/24) Accurately ripped
12 | (19/24) Accurately ripped
13 | (19/24) Accurately ripped
14 | (19/24) Accurately ripped
15 | (18/24) Accurately ripped
16 | (20/24) Accurately ripped

==== Log checksum 67F49ABFE433F7576698637EA07B7939E81AEB8A99780E705875AEE8A2D44666 ====

Информация о торренте:
Размер содержимого: 483.4 MB
Скачан: 233 раза
Статус: Проверен
Зарегистрирован на трекере: 2020-01-16 09:55
Скачать торрент


Поддержи раздачу — поставь лайк:
Писать комментарии на нашем торрент-трекере могут только зарегистрированные пользователи.
Зарегистрируйтесь или авторизируйтесь на сайте.