»
»

Скачать Pink Floyd - P.U.L.S.E. Live at Earls Court, London 1994 - Restored & Re-edited / [2019, Progressive Rock, HDRip] - торрент

Скачать бесплатно через торрент.

Статистика раздачи
0 [ 0 b/s ] ↑ 2.2 GB ↓ 0 [ 0 b/s ]
Автор Сообщение
monstryu
2020-01-22 14:54
Pink Floyd - P.U.L.S.E. Live at Earls Court, London 1994 - Restored & Re-edited
Pink Floyd - P.U.L.S.E. Live at Earls Court, London 1994 - Restored & Re-edited Формат: HDRip, AVI, XviD, AC3
Песня: P.U.L.S.E. Live at Earls Court, London 1994 - Restored & Re-edited
Жанр: Progressive Rock
Продолжительность: 02:23:53
Год выпуска: 2019
Видео: 720x576 (1.25:1), 23.976 fps, XviD build 63 ~1726 kbps avg, 0.17 bit/pixel
Аудио: 48 kHz, AC3 Dolby Digital, 3/2 (L,C,R,l,r) + LFE ch, ~448 kbps

Доп. информация: Видео было записано 20 октября 1994 года на стадионе Earls Court в Лондоне с использованием 20 камер. Оно содержит первую официальную видеозапись альбома The Dark Side Of The Moon, а также ряд других известных композиций группы.
Треклист
01. Shine On You Crazy Diamond
02. Learning To Fly
03. High Hopes
04. Take It Back
05. Coming Back To Life
06. Sorrow
07. Keep Talking
08. Another Brick In The Wall, Part 2
09. One Of These Days
10. Speak To Me
11. Breathe (In The Air)
12. On The Run
13. Time
14. The Great Gig In The Sky
15. Money
16. Us And Them
17. Any Colour You Like
18. Brain Damage
19. Eclipse
20. Wish You Were Here
21. Comfortably Numb
22. Run Like Hell
MI
General
Complete name : C:\Users\123\Downloads\Pink Floyd_HDRip_[tfile.ru].avi
Format : AVI
Format/Info : Audio Video Interleave
Format profile : OpenDML
File size : 2.19 GiB
Duration : 2 h 23 min
Overall bit rate : 2 182 kb/s
Writing application : VirtualDubMod 1.5.10.2 (build 2542/release)
Writing library : VirtualDubMod build 2542/release

Video
ID : 0
Format : xvid
Codec ID : xvid
Duration : 2 h 23 min
Bit rate : 1 724 kb/s
Width : 720 pixels
Height : 576 pixels
Display aspect ratio : 5:4
Frame rate : 23.976 (24000/1001) FPS
Bits/(Pixel*Frame) : 0.173
Stream size : 1.73 GiB (79%)

Audio
ID : 1
Format : AC-3
Format/Info : Audio Coding 3
Format settings, Endianness : Big
Codec ID : 2000
Duration : 2 h 23 min
Bit rate mode : Constant
Bit rate : 448 kb/s
Channel(s) : 6 channels
Channel positions : Front: L C R, Side: L R, LFE
Sampling rate : 48.0 kHz
Frame rate : 31.250 FPS (1536 SPF)
Bit depth : 16 bits
Compression mode : Lossy
Stream size : 461 MiB (21%)
Alignment : Split accross interleaves
Interleave, duration : 69 ms (1.64 video frames)
Interleave, preload duration : 548 ms
Service kind : Complete Main

Информация о торренте:
Размер содержимого: 2.2 GB
Скачан: 281 раз
Статус: Проверен
Зарегистрирован на трекере: 2020-01-22 13:54
Скачать торрент


Поддержи раздачу — поставь лайк:
Писать комментарии на нашем торрент-трекере могут только зарегистрированные пользователи.
Зарегистрируйтесь или авторизируйтесь на сайте.