»
»

Скачать Suzi Quatro - Videography / [1973 - 2006, Glam Rock, 2хDVD5] - торрент

Скачать бесплатно через торрент.

Статистика раздачи
0 [ 0 b/s ] ↑ 8.5 GB ↓ 0 [ 0 b/s ]
Автор Сообщение
cobra2000
2020-01-26 19:16
Suzi Quatro - Videography
Suzi Quatro - Videography
Формат: 2хDVD5, DVD Video, MPEG2, AC3
Песня: Videography
Жанр: Glam Rock
Продолжительность: 02:26:14
Год выпуска: 1973 - 2006

Видео: 720х576 (PAL 5:4), 25,000 fps, MPEG-2, 7785 kbps avg, 0.751 bit/pixel
Аудио: 48.0 КГц, Audio Coding 3, 2 ch, 256 kbps

Доп. информация: Куатро оказалась одной из первых в истории рока женщин, которая собрала собственную группу, причём из мужчин. «Я стала первой успешной женщиной в рок-н-ролле, которая возглавляла группу мужчин и серьёзно играла на инструменте. Этого не было ни до, ни после меня» — говорила она в интервью лондонской Express. В эпоху глэм-рока Куатро «…выработала стандарт, которому все женщины с электрогитарой стараются следовать по сей день» — писала Джейн Холл в Journal.

Треклист

Set1
01. Can The Can (1973)
02. 48 Crash (1973)
03. Cat Size (1974)
04. Devil Gate Drive (1974)
05. The Wild One (1974)
06. Daytona Demon (1974)
07. Too Big (1974)
08. I May Be Too Young (1975)
09. All Shook Up (1975)
10. Your Mamma Won't Like Me (1975)
11. Glycerine Queen (1975)
12. Tear Me Apart (1976)
13. Heatbreak Hotel (1976)
14. If You Can't Give Me Love (1978)
15. Suicide (1978)
16. Breakdown (1978)
17. The Race Is On (1978)
18. Evie (1978)
19. Don't Change My Luck (1978)
20. Stumblin' In (1978)

Set2
01. If You Can't Give Me Love (1978)
02. The Race Is On (1978)
03. Mama's Boy (1979)
04. She's In Love With You (1979)
05. Rock Hard (1980)
06. Glad All Over (1980)
07. Lipstick (1980)
08. Glad All Over (1981)
09. Heart Of Stone (1982)
10. There She Goes (1983)
11. Main Attraction (1984)
12. I Go Wild (1984)
13. We Found Love (1988)
14. Baby You're A Star (1989)
15. We Found Love (1989)
16. Baby Youre A Star (1991)
17. Kiss Me Goodbye (1991)
18. Spotlight (1991)
19. I Need Your Love (1992)
20. Back To The Drive (2006)


MediaInfo
Общее
Полное имя : D:Tfilesuzi_quatro_[tfile.ru]DVD1VIDEO_TSVTS_01_1.VOB
Формат : MPEG-PS
Размер файла : 1024 Мбайт
Продолжительность : 17 м. 26 с.
Режим общего битрейта : Постоянный
Общий поток : 8204 Кбит/сек

Видео
Идентификатор : 224 (0xE0)
Формат : MPEG Video
Версия формата : Version 2
Профиль формата : Main@High
Параметр BVOP формата : Нет
Параметр матрицы формата : По умолчанию
Параметр GOP формата : Variable
Продолжительность : 17 м. 26 с.
Вид битрейта : Постоянный
Битрейт : 7785 Кбит/сек
Максимальный битрейт : 8000 Кбит/сек
Ширина : 720 пикселей
Высота : 576 пикселей
Соотношение сторон : 5:4
Частота кадров : 25,000 кадров/сек
Стандарт вещания : PAL
Цветовое пространство : YUV
Субдискретизация насыщенности : 4:2:0
Битовая глубина : 8 бит
Тип развёртки : Прогрессивная
Метод сжатия : С потерями
Бит/(Пиксели*Кадры) : 0.751
Временной код первого кадра : 00:00:00:00
Оригинал временного кода : Group of pictures header
GOP, открыто/закрыто : Закрыто
Размер потока : 972 Мбайт (95%)
Основные цвета : BT.601 PAL
Характеристики трансфера : BT.470 System B, BT.470 System G
Коэффициенты матрицы : BT.601

Аудио
Идентификатор : 189 (0xBD)-128 (0x80)
Формат : AC-3
Формат/Информация : Audio Coding 3
Параметр Endianness формата : Big
Режим смешивания : DVD-Video
Продолжительность : 17 м. 26 с.
Вид битрейта : Постоянный
Битрейт : 256 Кбит/сек
Каналы : 2 канала
Расположение каналов : Front: L R
Частота : 48,0 КГц
Частота кадров : 31,250 кадров/сек (1536 spf)
Битовая глубина : 16 бит
Метод сжатия : С потерями
Задержка видео : -8 мс.
Размер потока : 31,9 Мбайт (3%)
ServiceKind/String : Complete Main



Информация о торренте:
Размер содержимого: 8.5 GB
Скачан: 392 раза
Статус: Проверен
Зарегистрирован на трекере: 2020-01-26 18:16
Скачать торрент


Поддержи раздачу — поставь лайк:
Писать комментарии на нашем торрент-трекере могут только зарегистрированные пользователи.
Зарегистрируйтесь или авторизируйтесь на сайте.