»
»

Скачать музыку Partyfloor Featuring MC Polt Immer Bum Bum / [1996, Euro House, Happy Hardcore, FLAC] - торрент

Нажмите синюю кнопку, чтобы cкачать бесплатно через торрент музыку.

Статистика раздачи
0 [ 0 b/s ] ↑ 182.7 MB ↓ 0 [ 0 b/s ]
Автор Сообщение
Soldat_5
2020-01-27 02:41
Partyfloor Featuring MC Polt Immer Bum Bum
Partyfloor Featuring MC Polt  Immer Bum Bum Формат: FLAC, (image + .cue), lossless
Год выпуска: 1996
Страна: Germany
Жанр: Euro House, Happy Hardcore
Продолжительность: 00:20:51
Описание: 1. Immer Bum Bum (Radio Mix)
2. Immer Bum Bum (Club Mix)
3. Immer Bum Bum (Bubi Mix)
4. Flohwalzer (Original Mix)

Доп. информация:
Отчёт EAC


Exact Audio Copy V1.3 from 2. September 2016
Отчёт EAC об извлечении, выполненном 26. января 2020, 19:46
Partyfloor Featuring MC Polt / Immer Bum Bum
Дисковод: HL-DT-STDVDRAM GH24NSD5 Adapter: 1 ID: 0
Режим чтения : Достоверность
Использование точного потока : Да
Отключение кэша аудио : Да
Использование указателей C2 : Нет
Коррекция смещения при чтении : 6
Способность читать области Lead-in и Lead-out : Нет
Заполнение пропущенных сэмплов тишиной : Да
Удаление блоков с тишиной в начале и конце : Нет
При вычислениях CRC использовались нулевые сэмплы : Да
Интерфейс : Встроенный Win32-интерфейс для Win NT/2000
Выходной формат : Пользовательский кодировщик
Выбранный битрейт : 896 kBit/s
Качество : Высокий
Добавление ID3-тега : Нет
Утилита сжатия : C:Program Files (x86)Exact Audio CopyFlacflac.exe
Дополнительные параметры : -V -8 -T "Date=%year%" -T "Genre=%genre%" %source%
TOC извлечённого CD
Трек | Старт | Длительность | Начальный сектор | Конечный сектор
---------------------------------------------------------------------
1 | 0:00.00 | 3:49.61 | 0 | 17235
2 | 3:49.61 | 6:22.20 | 17236 | 45905
3 | 10:12.06 | 5:40.50 | 45906 | 71455
4 | 15:52.56 | 5:45.55 | 71456 | 97385
Характеристики диапазона извлечения и сообщения об ошибках
Выбранный диапазон
Имя файла D:Program FilesExact Audio CopyFlacPartyfloor Featuring MC Polt ‎– Immer Bum Bum (CDM)(1996)Partyfloor Featuring MC Polt - Immer Bum Bum.wav
Пиковый уровень 94.9 %
Скорость извлечения 5.3 X
Качество диапазона 99.9 %
CRC теста 8EBACF4C
CRC копии 8EBACF4C
Копирование... OK
Ошибок не произошло
AccurateRip: сводка
Трек 1 : извлечено точно (доверие 3) [555AB233] (AR v1)
Трек 2 : извлечено точно (доверие 3) [FE4C224A] (AR v1)
Трек 3 : извлечено точно (доверие 3) [1F971249] (AR v1)
Трек 4 : извлечено точно (доверие 3) [8842115F] (AR v1)
Все треки извлечены точно
Конец отчёта
---- CUETools DB Plugin V2.1.6
[CTDB TOCID: iLsRHqVwNfwJ.Xes0fFAHBp9O4g-] found
Submit result: already submitted
Track | CTDB Status
1 | (4/4) Accurately ripped
2 | (4/4) Accurately ripped
3 | (4/4) Accurately ripped
4 | (4/4) Accurately ripped
==== Контрольная сумма отчёта D94BEED9520A7171C155A3F8F86FE532474EAB3A8735B6EE57FA26C84CD57EAE ====

Информация о торренте:
Размер содержимого: 182.7 MB
Скачан: 224 раза
Статус: Проверен
Зарегистрирован на трекере: 2020-01-27 01:41
Скачать торрент


Поддержи раздачу — поставь лайк:
Писать комментарии на нашем торрент-трекере могут только зарегистрированные пользователи.
Зарегистрируйтесь или авторизируйтесь на сайте.