»
»

Скачать Black Sabbath - Never Say Die / [1978, Hard Rock, DVD5] - торрент

Торрент можно скачать, нажав синюю кнопку ниже.

Статистика раздачи
0 [ 0 b/s ] ↑ 3.4 GB ↓ 0 [ 0 b/s ]
Автор Сообщение
cobra2000
2020-02-01 13:42
Black Sabbath - Never Say Die
Black Sabbath - Never Say Die Формат: DVD5, DVD Video, MPEG2, AC3
Песня: Never Say Die
Жанр: Hard Rock
Продолжительность: 00:56:53
Год выпуска: 1978

Видео: 720х576 (PAL 5:4), 25,000 fps, MPEG-2, 8000 kbps avg, 0.772 bit/pixel
Аудио: 48.0 КГц, Audio Coding 3, 2 ch, 256 kbps

Доп. информация: Never Say Die — концерт группы Black Sabbath. Был снят во время юбилейного тура в июне 1978 года в Лондоне. Один из самых ранних музыкальных видео релизов в Великобритании. Изначально вышел в форматах VHS и Betamax в 1986 году, в Японии на лазерных дисках в 1992 году. Концерт проходил в концертном зале Лондона "Hammersmith Odeon", расчитанный на 5039 стоячих мест и на 3632 сидячих мест.

Треклист:
1. Symptom of the Universe
2. War Pigs
3. Snow Blind
4. Never Say Die
5. Black Sabbath
6. Dirty Women
7. Rock And Roll Doctor
8. Electric Funeral
9. Children of the Grave
10. Paranoid


MediaInfo
Общее
Полное имя : D:Tfileblack_sabbath_never_say_die_[tfile.ru]VIDEO_TSVTS_01_1.VOB
Формат : MPEG-PS
Размер файла : 1024 Мбайт
Продолжительность : 17 м. 2 с.
Режим общего битрейта : Постоянный
Общий поток : 8398 Кбит/сек

Видео
Идентификатор : 224 (0xE0)
Формат : MPEG Video
Версия формата : Version 2
Профиль формата : Main@High
Параметр BVOP формата : Нет
Параметр матрицы формата : По умолчанию
Параметр GOP формата : N=15
Продолжительность : 17 м. 2 с.
Вид битрейта : Постоянный
Битрейт : 8000 Кбит/сек
Ширина : 720 пикселей
Высота : 576 пикселей
Соотношение сторон : 5:4
Частота кадров : 25,000 кадров/сек
Стандарт вещания : PAL
Цветовое пространство : YUV
Субдискретизация насыщенности : 4:2:0
Битовая глубина : 8 бит
Тип развёртки : Прогрессивная
Метод сжатия : С потерями
Бит/(Пиксели*Кадры) : 0.772
Временной код первого кадра : 00:00:00:00
Оригинал временного кода : Group of pictures header
GOP, открыто/закрыто : Закрыто
Размер потока : 972 Мбайт (95%)
Основные цвета : BT.601 PAL
Характеристики трансфера : BT.470 System B, BT.470 System G
Коэффициенты матрицы : BT.601

Аудио
Идентификатор : 189 (0xBD)-128 (0x80)
Формат : AC-3
Формат/Информация : Audio Coding 3
Параметр Endianness формата : Big
Режим смешивания : DVD-Video
Продолжительность : 17 м. 2 с.
Вид битрейта : Постоянный
Битрейт : 256 Кбит/сек
Каналы : 2 канала
Расположение каналов : Front: L R
Частота : 48,0 КГц
Частота кадров : 31,250 кадров/сек (1536 spf)
Битовая глубина : 16 бит
Метод сжатия : С потерями
Задержка видео : -8 мс.
Размер потока : 31,2 Мбайт (3%)
ServiceKind/String : Complete Main



Информация о торренте:
Размер содержимого: 3.4 GB
Скачан: 250 раз
Статус: Проверен
Зарегистрирован на трекере: 2020-02-01 12:42
Скачать торрент


Поддержи раздачу — поставь лайк:
Писать комментарии на нашем торрент-трекере могут только зарегистрированные пользователи.
Зарегистрируйтесь или авторизируйтесь на сайте.