»
»

Скачать Scorpions - Rock In Rio / [2019, Hard Rock, DVD5] - торрент

Торрент можно скачать, нажав синюю кнопку ниже.

Статистика раздачи
0 [ 0 b/s ] ↑ 4.3 GB ↓ 0 [ 0 b/s ]
Автор Сообщение
cobra2000
2020-02-01 20:43
Scorpions - Rock In Rio
Scorpions - Rock In Rio
Формат: DVD5, DVD Video, MPEG2, AC3
Песня: Rock In Rio
Жанр: Hard Rock
Продолжительность: 01:28:36
Год выпуска: 2019

Видео: 720х576 (PAL 16:9), 25,000 fps, MPEG-2, ~6774 kbps avg, 0.653 bit/pixel
Аудио: 48.0 КГц, Audio Coding 3, 2 ch, 192 kbps

Доп. информация: Это видеозапись выступления SCORPIONS 4 октября 2019 года на фестивале Rock In Rio в Рио-де-Жанейро, Бразилия.

Треклист:
01. Going Out With a Bang
02. Make It Real
03. The Zoo
04. Coast to Coast
05. Top of the Bill / Steamrock Fever / Speedy's Coming / Catch Your Train (70's medley)
06. We Built This House
07. Delicate Dance
08. Cidade Maravilhosa ([Traditional] cover) (Tribute to Rio)
09. Send Me an Angel
10. Wind of Change
11. Tease Me Please Me
12. Drum Solo
13. Blackout
14. Big City Nights
Encore:
15. Still Loving You
16. Rock You Like a Hurricane


MediaInfo
Общее
Полное имя : D:Tfilescorpions_rock_in_rio_[tfile.ru]VTS_01_1.VOB
Формат : MPEG-PS
Размер файла : 1024 Мбайт
Продолжительность : 20 м. 8 с.
Режим общего битрейта : Переменный
Общий поток : 7108 Кбит/сек

Видео
Идентификатор : 224 (0xE0)
Формат : MPEG Video
Версия формата : Version 2
Профиль формата : Main@Main
Параметр BVOP формата : Да
Параметр матрицы формата : По умолчанию
Параметр GOP формата : M=3, N=13
Продолжительность : 20 м. 8 с.
Вид битрейта : Переменный
Битрейт : 6774 Кбит/сек
Максимальный битрейт : 9008 Кбит/сек
Ширина : 720 пикселей
Высота : 576 пикселей
Соотношение сторон : 16:9
Частота кадров : 25,000 кадров/сек
Стандарт вещания : PAL
Цветовое пространство : YUV
Субдискретизация насыщенности : 4:2:0
Битовая глубина : 8 бит
Тип развёртки : Прогрессивная
Метод сжатия : С потерями
Бит/(Пиксели*Кадры) : 0.653
Временной код первого кадра : 00:00:00:00
Оригинал временного кода : Group of pictures header
GOP, открыто/закрыто : Закрыто
Размер потока : 976 Мбайт (95%)

Аудио
Идентификатор : 189 (0xBD)-128 (0x80)
Формат : AC-3
Формат/Информация : Audio Coding 3
Параметр Endianness формата : Big
Режим смешивания : DVD-Video
Продолжительность : 20 м. 8 с.
Вид битрейта : Постоянный
Битрейт : 192 Кбит/сек
Каналы : 2 канала
Расположение каналов : Front: L R
Частота : 48,0 КГц
Частота кадров : 31,250 кадров/сек (1536 spf)
Битовая глубина : 16 бит
Метод сжатия : С потерями
Размер потока : 27,7 Мбайт (3%)
ServiceKind/String : Complete Main



Информация о торренте:
Размер содержимого: 4.3 GB
Скачан: 338 раз
Статус: Проверен
Зарегистрирован на трекере: 2020-02-01 19:47
Скачать торрент


Поддержи раздачу — поставь лайк:
Писать комментарии на нашем торрент-трекере могут только зарегистрированные пользователи.
Зарегистрируйтесь или авторизируйтесь на сайте.