»
»

Скачать музыку April Wine - Greatest Hits / [1991, Hard Rock, Rock, FLAC] - торрент

Скачать музыку через торрент бесплатно.

Статистика раздачи
0 [ 0 b/s ] ↑ 334.1 MB ↓ 0 [ 0 b/s ]
Автор Сообщение
rainbow.n
2020-02-03 13:50
April Wine - Greatest Hits
April Wine - Greatest Hits Формат: FLAC, (image + .cue), lossless
Год выпуска: 1991
Страна: Canada
Жанр: Hard Rock, Rock
Продолжительность: 00:50:38
Описание:

01. Fast Train
02. Drop Your Guns
03. Weeping Widow
04. Rock N Roll Is A Vicious Game
05. Oowatanite
06. You Could Have Been A Lady
07. Roller
08. Like A Lover, Like A Song
09. I'm On Fire For You Baby
10. Lady Run, Lady Hide
11. Bad Side Of The Moon
12. I Wouldn't Want To Lose Your Love
13. You Won't Dance With Me
14. Tonite Is A Wonderful Time To Fall In Love

Доп. информация:
eac
Exact Audio Copy V1.3 from 2. September 2016

EAC extraction logfile from 25. January 2020, 17:32

April Wine / Greatest Hits

Used drive : ASUS DRW-24D5MT Adapter: 1 ID: 0

Read mode : Secure
Utilize accurate stream : Yes
Defeat audio cache : Yes
Make use of C2 pointers : No

Read offset correction : 6
Overread into Lead-In and Lead-Out : No
Fill up missing offset samples with silence : Yes
Delete leading and trailing silent blocks : No
Null samples used in CRC calculations : Yes
Used interface : Native Win32 interface for Win NT & 2000

Used output format : User Defined Encoder
Selected bitrate : 128 kBit/s
Quality : High
Add ID3 tag : No
Command line compressor : C:\Program Files (x86)\Exact Audio Copy\FLAC\FLAC.EXE
Additional command line options : -V -8 -T "Date=%year%" -T "Genre=%genre%" %source%

TOC of the extracted CD

Track | Start | Length | Start sector | End sector
---------------------------------------------------------
1 | 0:00.00 | 3:22.30 | 0 | 15179
2 | 3:22.30 | 3:38.10 | 15180 | 31539
3 | 7:00.40 | 3:55.55 | 31540 | 49219
4 | 10:56.20 | 3:19.47 | 49220 | 64191
5 | 14:15.67 | 3:51.70 | 64192 | 81586
6 | 18:07.62 | 3:24.30 | 81587 | 96916
7 | 21:32.17 | 3:38.13 | 96917 | 113279
8 | 25:10.30 | 5:08.17 | 113280 | 136396
9 | 30:18.47 | 3:29.10 | 136397 | 152081
10 | 33:47.57 | 3:02.00 | 152082 | 165731
11 | 36:49.57 | 3:15.15 | 165732 | 180371
12 | 40:04.72 | 3:12.15 | 180372 | 194786
13 | 43:17.12 | 3:44.63 | 194787 | 211649
14 | 47:02.00 | 3:35.65 | 211650 | 227839

Range status and errors

Selected range

Filename F:\ЕАС\rwa12\April Wine - Greatest Hits.wav

Peak level 100.0 %
Extraction speed 7.0 X
Range quality 100.0 %
Test CRC C2E3AFA9
Copy CRC C2E3AFA9
Copy OK

No errors occurred

AccurateRip summary

Track 1 accurately ripped (confidence 8) [694C31E7] (AR v2)
Track 2 accurately ripped (confidence 8) [612B612D] (AR v2)
Track 3 accurately ripped (confidence 8) [E643238D] (AR v2)
Track 4 accurately ripped (confidence 8) [C7508AFF] (AR v2)
Track 5 accurately ripped (confidence 8) [084E1158] (AR v2)
Track 6 accurately ripped (confidence 8) [9BEBFDFA] (AR v2)
Track 7 accurately ripped (confidence 8) [088D887C] (AR v2)
Track 8 accurately ripped (confidence 8) [F5DCCFD7] (AR v2)
Track 9 accurately ripped (confidence 8) [247734F3] (AR v2)
Track 10 accurately ripped (confidence 8) [76B9F10F] (AR v2)
Track 11 accurately ripped (confidence 8) [34536B01] (AR v2)
Track 12 accurately ripped (confidence 8) [6016ACE0] (AR v2)
Track 13 accurately ripped (confidence 8) [144EAF98] (AR v2)
Track 14 accurately ripped (confidence 8) [EF8CDDF3] (AR v2)

All tracks accurately ripped

End of status report

---- CUETools DB Plugin V2.1.6

[CTDB TOCID: TmmsFDxOrTScZXrrceWPwM58OGE-] found
Submit result: TmmsFDxOrTScZXrrceWPwM58OGE- has been confirmed
Track | CTDB Status
1 | (21/22) Accurately ripped
2 | (22/22) Accurately ripped
3 | (22/22) Accurately ripped
4 | (22/22) Accurately ripped
5 | (22/22) Accurately ripped
6 | (22/22) Accurately ripped
7 | (20/22) Accurately ripped
8 | (22/22) Accurately ripped
9 | (22/22) Accurately ripped
10 | (22/22) Accurately ripped
11 | (22/22) Accurately ripped
12 | (22/22) Accurately ripped
13 | (22/22) Accurately ripped
14 | (21/22) Accurately ripped

==== Log checksum 91AA6E3E16463BE5B1D8CED9840B4F7F936C3E163058233CA96125F76CAE3E9F ====

Информация о торренте:
Размер содержимого: 334.1 MB
Скачан: 130 раз
Статус: Проверен
Зарегистрирован на трекере: 2020-02-03 12:50
Скачать торрент


Поддержи раздачу — поставь лайк:
Писать комментарии на нашем торрент-трекере могут только зарегистрированные пользователи.
Зарегистрируйтесь или авторизируйтесь на сайте.